Browse Collections Artists Sources   Search Dates

Add Show    List Management    Help


Grateful Dead 12/28/79
Oakland Auditorium Arena, Oakland, CA
Comments Add Comment    Source Collectors    Add to Collection    Add to Want List    History
Source # 89273 Other Sources
Entered by Matt Vernon
Checksums ffp , flac-md5
Disc Counts 2 / 3
Media Size
Date Circulated
Date Added
12/30/2007
12/30/2007
Source Summary flac16; Recording by Joani Walker: Sennheiser 421 -> Cassette Master (Sony TC-158/Maxell UDXL-II90) Transfer Info: Cassette Master (Nakamichi DR-1) -> Sound Devices 744T (24bit/96k) -> Samplitude Professional v9.12 -> FLAC/16 All Transfers and Mastering By Charlie Miller 
  Archive
Source Information - Download Text | Download Zip
Grateful Dead - December 28, 1979
Oakland Auditorium - Oakland, CA

Recording Info:
Sennheiser 421 -> Cassette Master (Sony TC-158/Maxell UDXL-II90)

Transfer Info:
Cassette Master (Nakamichi DR-1) -> Sound Devices 744T (24bit/96k) ->
Samplitude Professional v9.12 -> FLAC/16
(3 Discs Audio / 2 Discs FLAC)

All Transfers and Mastering By Charlie Miller
[email protected]
December 14, 2007

Patch Info:
Nakamichi 700 -> Cassette Master -> Dat -> CD supplies:
Playing In The Band (16:24 - 16:36)

Notes:
-- Set 2 is seamless
-- Recorded By Joani Walker
-- Thanks to Paul Scotton and Joani Walker for the tapes

Set 1:
d1t01 - Tuning
d1t02 - Sugaree
d1t03 - Mama Tried ->
d1t04 - Mexicali Blues
d1t05 - Row Jimmy
d1t06 - It's All Over Now
d1t07 - High Time
d1t08 - The Music Never Stopped

Set 2:
d2t01 - Tuning
d2t02 - Alabama Getaway ->
d2t03 - Greatest Story Ever Told
d2t04 - Terrapin Station ->
d2t05 - Playing In The Band ->
d2t06 - Drums ->
d3t01 - Space ->
d3t02 - Uncle John's Band ->
d3t03 - I Need A Miracle ->
d3t04 - Bertha ->
d3t05 - Good Lovin'

Encore:
d3t06 - Casey Jones
d3t07 - One More Saturday Night


SHNTOOL OUTPUT:
    length     expanded size   cdr  WAVE problems filename
     2:11.35       23190764    ---   --   -----   gd79-12-28d1t01.wav
    16:34.52      175463948    ---   --   -----   gd79-12-28d1t02.wav
     2:29.29       26351852    ---   --   -----   gd79-12-28d1t03.wav
     5:43.65       60658124    ---   --   -----   gd79-12-28d1t04.wav
    15:20.65      162440924    ---   --   -----   gd79-12-28d1t05.wav
     8:12.14       86821772    ---   --   -----   gd79-12-28d1t06.wav
     6:53.64       73003772    ---   --   -----   gd79-12-28d1t07.wav
     8:52.19       93889532    ---   --   -----   gd79-12-28d1t08.wav
     2:00.46       21276236    ---   --   -----   gd79-12-28d2t01.wav
     6:44.68       71425580    ---   --   -----   gd79-12-28d2t02.wav
     5:39.02       59804348    ---   --   -----   gd79-12-28d2t03.wav
    14:15.39      150913772    ---   --   -----   gd79-12-28d2t04.wav
    17:37.33      186532460    ---   --   -----   gd79-12-28d2t05.wav
     7:47.22       82430588    ---   --   -----   gd79-12-28d2t06.wav
     2:24.50       25519244    ---   --   -----   gd79-12-28d3t01.wav
     9:41.39      102580172    ---   --   -----   gd79-12-28d3t02.wav
     4:05.66       43373276    ---   --   -----   gd79-12-28d3t03.wav
     6:34.27       69565148    ---   --   -----   gd79-12-28d3t04.wav
     7:45.34       82106012    ---   --   -----   gd79-12-28d3t05.wav
     6:02.65       64009724    ---   --   -----   gd79-12-28d3t06.wav
     5:00.52       53042348    ---   --   -----   gd79-12-28d3t07.wav
   161:58.61     1714399596 B                     (totals for 21 files)
Show Checksums
ffp
gd79-12-28d1t01.flac:da1bcea630d255e0536100a8a32b332c
gd79-12-28d1t02.flac:939707eb010ab33126ea7732fce69694
gd79-12-28d1t03.flac:e54b125f40126fe52fb1659bda8094e4
gd79-12-28d1t04.flac:014f2f517b8116a426f399dd05bda578
gd79-12-28d1t05.flac:2408f0c9900fa3c1a57d9a8e0846cff1
gd79-12-28d1t06.flac:9582121662d49a5f55bbafc1d633da1c
gd79-12-28d1t07.flac:4f046516044f44b426d1a28812cc4f05
gd79-12-28d1t08.flac:10cd592d121c946b90ebcbbd57b001c8
gd79-12-28d2t01.flac:5d92208d05ea93a6806718150bff11bd
gd79-12-28d2t02.flac:54a176dcc03b8c3616eac2d4a8c7207a
gd79-12-28d2t03.flac:c471bb929994f7383ab019aed0b9232f
gd79-12-28d2t04.flac:1bd8a1ffee4821031cb5e4ced3910866
gd79-12-28d2t05.flac:d7b29070546611a0cd678fe5122fc227
gd79-12-28d2t06.flac:6a2b9f852be6859033df65d88aba7eb0
gd79-12-28d3t01.flac:fbb9c1b7e337330ba49b992e8aa6f365
gd79-12-28d3t02.flac:bd87a3e03d33e13baa8bc65ae63f3f5b
gd79-12-28d3t03.flac:d65d30ddd1d1d062875f8a2787107226
gd79-12-28d3t04.flac:29c0fe24e5f2a360c129e3d01dbc0114
gd79-12-28d3t05.flac:1e05d23d4676391786e1a1638d989d6a
gd79-12-28d3t06.flac:79d495912176a40cb704d8485b58bbc7
gd79-12-28d3t07.flac:a8470454c69cce0b71aa18ce0a72ed62
flac-md5
cef7838626ee723a3520c90b9fe55e7c *gd79-12-28d1t01.flac
280f4cfbf8365d5d7dffedf5db38177d *gd79-12-28d1t02.flac
9f97eada2c3d5b313fb4deb04e1a9698 *gd79-12-28d1t03.flac
dedeb142b24fb2ebb842a54493b2c110 *gd79-12-28d1t04.flac
d08c4a4aa2a294b670b330e36ff8e197 *gd79-12-28d1t05.flac
435108ba6755dfc25071b7da51f4e0d9 *gd79-12-28d1t06.flac
aac72cb0fe6499bbc6b22f726afc98b8 *gd79-12-28d1t07.flac
dd4d4ceb039a3174898adf6ffeafe6ab *gd79-12-28d1t08.flac
3160611d37089587b942fc860cfdc16f *gd79-12-28d2t01.flac
f5d8b358bb0c0fdcf79e50b5e1c43cd0 *gd79-12-28d2t02.flac
0e8fa48adf271f99f804712d44f2a98f *gd79-12-28d2t03.flac
e46f1df944c3ef9f59f28a1129f3fdfe *gd79-12-28d2t04.flac
f2a512f0113fa0c6e85bd201708363da *gd79-12-28d2t05.flac
80ed280125d6ff9e8fc316b52ed540af *gd79-12-28d2t06.flac
a4ffd35acfec88e9a47b20807ffafb3d *gd79-12-28d3t01.flac
1ce98addeedb7d53a35965a9386a1134 *gd79-12-28d3t02.flac
1b4de024cde883ca74f6fbba85ce6b06 *gd79-12-28d3t03.flac
72010c86a8220f9a581ee6515bf6a690 *gd79-12-28d3t04.flac
ceab9609edbdd59cfe8111ff640c6d3d *gd79-12-28d3t05.flac
256911248e0d3e524dc912b49c298680 *gd79-12-28d3t06.flac
7c5a258b3f8b7c4246c64445f9d59d25 *gd79-12-28d3t07.flac

Comments
Add Comment
Other Sources (comments)
SBD; transferred and seeded... (1) Recording by Steve Rolfe:... (0) sector boundary errors... (0) flac16; SBD > MR >... (1) flac16; Matrix by... (0) flac16;Recording... (0) flac16; Recorded By... (0) flac16; Recording... (0) flac16; Recording... (0) flac16; Recording... (0)
Date User Comment