Browse Collections Artists Sources   Search Dates

Add Show    List Management    Help


Gov't Mule 12/14/07
Stella Blue, Asheville, NC
Comments Add Comment    Source Collectors    Add to Collection    Add to Want List    History
Source # 89293 Other Sources
Entered by
Checksums ffp
Disc Counts 1 / 1
Media Size
Date Circulated
Date Added
12/15/2007
01/01/2008
Source Summary source: Neumann km140 (dinish) > Lunatec V3 > Tascam HD-P2 @ 24/96 location: fob,dfc hung from the ceiling in the sweet spot transfer: compact flash card > PC > wavelab 5.01b > cd wave > flac (level 6) all editing (fades at beginning and end of set, resampled w/ resampler 192, dither w/ iZotope Ozone 3) done in wavelab 5.01b recorded and transfered by Gordon Wilson 
Source Information - Download Text | Download Zip
Gov't Mule & Friends
12/14/2007
Stella Blue
Asheville,NC

source: Neumann km140 (dinish) > Lunatec V3 > Tascam HD-P2 @ 24/96
location: fob,dfc hung from the ceiling in the sweet spot
transfer: compact flash card > PC > wavelab 5.01b > cd wave > flac (level 6)

all editing (fades at beginning and end of set, resampled w/ resampler 192, dither w/ iZotope Ozone 3) done in wavelab 5.01b

*This is a 16bit/44.1khz fileset*

recorded and transfered by Gordon Wilson

1. Intro/tuning
2. That's What Love Will Make You Do
3. Smokestack Lightning >
4. Funky Good Time >
5. Smokestack Lightning
6. Aint No Sunshine
7. Lively up yourself (Instrumental)

Warren Haynes guitar and vocals
Andy Hess: bass
Matt Apts: drums
Audley Freed: guitar
Bernie Worrell: keys

shntool output:
    length     expanded size   cdr  WAVE problems filename
     2:37.25       27753644    ---   --   ---xx   mule2007-12-14stellaT01.flac
     6:15.66       66305276    ---   --   ---xx   mule2007-12-14stellaT02.flac
     4:09.73       44095340    ---   --   ---xx   mule2007-12-14stellaT03.flac
     4:19.01       45689996    ---   --   ---xx   mule2007-12-14stellaT04.flac
     1:56.02       20467148    ---   --   ---xx   mule2007-12-14stellaT05.flac
     5:27.67       57840428    ---   --   ---xx   mule2007-12-14stellaT06.flac
    11:42.17      123872828    ---   --   ---xx   mule2007-12-14stellaT07.flac
    36:28.26         368.14 MB                    (totals for 7 files, 0.5088 overall compression ratio)

Show Checksums
ffp
mule2007-12-14stellaT01.flac:de4b19c9b8bfc050b9cbfe3f0121c409
mule2007-12-14stellaT02.flac:a845b18ac0e625707c8c9c75c7c5ec56
mule2007-12-14stellaT03.flac:bf6db7c39b25619ea486a06c0d9d353c
mule2007-12-14stellaT04.flac:a4f07b1598f5c525a7b51d7b886a5699
mule2007-12-14stellaT05.flac:2c68a04ab89215ec049626dd8f6945f1
mule2007-12-14stellaT06.flac:967ab0540703d18fbe220b8170385351
mule2007-12-14stellaT07.flac:8bcb1878b7ee749180a040be0cb74c48

Comments
Add Comment
Other Sources (comments)
Source: 2- Sennheiser... (0) Source: Schoeps... (0)
Date User Comment