Browse Collections Artists Sources   Search Dates

Add Show    List Management    Help


Phish 10/21/96
Madison Square Garden, New York, NY
Comments Add Comment    Source Collectors    Add to Collection    Add to Want List    History
Source # 89338 Other Sources
Entered by Jason Sobel
Checksums all_ffp , all_wav_md5
Disc Counts 2 / 3
Media Size
Date Circulated
Date Added
01/03/2008
01/03/2008
Source Summary Neumann TLM-170R > Sonosax SX-M2 > Teac DA-P20 (@ 48 kHz); Tascam DA-20MKII > Tascam HD-P2 > WaveLab 5.01b (de-emphasis, fades, 48 to 44.1 kHz) > CD Wave v1.96.1 > FLAC v1.2.1 (Level 8); Transferred by Jason Sobel 
Source Information - Download Text | Download Zip
Phish
October 21, 1996
Madison Square Garden
New York, NY

source:
Neumann TLM-170R > Sonosax SX-M2 > Teac DA-P20 (@ 48 kHz)

transfer:
Tascam DA-20MKII > Tascam HD-P2 > CF card > usb 2.0 > pc > WaveLab 5.01b (de-emphasis, fades, resample to 44.1 kHz) > CD Wave v1.96.1 > FLAC v1.2.1 (Level 8)

FLAC tags added with metaflac v1.2.1

transferred by Jason Sobel ([email protected])
seeded January 3, 2008

notes:
The original DAT recording was made with pre-emphasis.
The Waves Q10 Paragraphic EQ v5.0 plug-in was used to de-emphasize the recording.
The original 48 kHz .wav files from the DAT transfer have been archived, and are available upon request.
Big thanks to Eliot Byron for letting me borrow his DATs!

Disc 1 - [65:49]
Set I
01 - [02:14] - The Star Spangled Banner
02 - [04:46] - Sample in a Jar
03 - [03:36] - Cars Trucks Buses
04 - [03:38] - The Sloth
05 - [14:34] - The Divided Sky
06 - [06:10] - Character Zero
07 - [03:08] - Ginseng Sullivan
08 - [13:15] - Stash
09 - [05:22] - Waste
10 - [09:07] - Possum

Disc 2 - [45:24]
Set II
01 - [05:23] - Wilson
02 - [07:46] - Chalk Dust Torture
03 - [05:21] - Wolfman's Brother
04 - [11:59] - Reba
05 - [02:49] - Train Song
06 - [12:07] - Maze

Disc 3 - [42:17]
Set II continued
01 - [03:16] - Life on Mars?
02 - [11:57] - Simple ->
03 - [01:23] - The Horse >
04 - [05:26] - Silent in the Morning
05 - [12:04] - David Bowie
06 - [02:55] - encore break
07 - [05:15] - Funky Bitch

------------------------------------------------------------------------------------------------------------

SHNtool:

    length     expanded size   cdr  WAVE problems filename
     2:13.52       23583548    ---   --   ---xx   ph1996-10-21d1t01.flac
     4:45.52       50396348    ---   --   ---xx   ph1996-10-21d1t02.flac
     3:35.69       38088332    ---   --   ---xx   ph1996-10-21d1t03.flac
     3:37.64       38429372    ---   --   ---xx   ph1996-10-21d1t04.flac
    14:34.33      154251260    ---   --   ---xx   ph1996-10-21d1t05.flac
     6:09.63       65239820    ---   --   ---xx   ph1996-10-21d1t06.flac
     3:07.62       33132668    ---   --   ---xx   ph1996-10-21d1t07.flac
    13:15.06      140252156    ---   --   ---xx   ph1996-10-21d1t08.flac
     5:22.10       56824364    ---   --   ---xx   ph1996-10-21d1t09.flac
     9:06.39       96406172    ---   --   ---xx   ph1996-10-21d1t10.flac
     5:23.08       56996060    ---   --   ---xx   ph1996-10-21d2t01.flac
     7:45.55       82155404    ---   --   ---xx   ph1996-10-21d2t02.flac
     5:20.42       56546828    ---   --   ---xx   ph1996-10-21d2t03.flac
    11:58.68      126815180    ---   --   ---xx   ph1996-10-21d2t04.flac
     2:48.66       29790476    ---   --   ---xx   ph1996-10-21d2t05.flac
    12:06.45      128172284    ---   --   ---xx   ph1996-10-21d2t06.flac
     3:15.67       34555628    ---   --   ---xx   ph1996-10-21d3t01.flac
    11:57.11      126504716    ---   --   ---xx   ph1996-10-21d3t02.flac
     1:23.14       14674172    ---   --   ---xx   ph1996-10-21d3t03.flac
     5:26.11       57532316    ---   --   ---xx   ph1996-10-21d3t04.flac
    12:04.12      127741868    ---   --   ---xx   ph1996-10-21d3t05.flac
     2:55.16       30907676    ---   --   ---xx   ph1996-10-21d3t06.flac
     5:15.35       55648364    ---   --   ---xx   ph1996-10-21d3t07.flac
   153:30.00     1624645012 B                     (totals for 23 files, 0.5025 overall compression ratio)
Show Checksums
all_ffp
ph1996-10-21d1t01.flac:0118a4bf99cb8affcdc7ffd25512df5f
ph1996-10-21d1t02.flac:3ff9f08a8089a0aae8b41e0639a152d8
ph1996-10-21d1t03.flac:eed2ccd79c25d3d78544b97e89ad28ed
ph1996-10-21d1t04.flac:59e2f9436c4b8c69ba8e549c0718fed8
ph1996-10-21d1t05.flac:06b714de87dcd24d9b0296e6a0ac1a5a
ph1996-10-21d1t06.flac:ff373f6b673a0955ca78299f67ed77f5
ph1996-10-21d1t07.flac:2e50179d207b509bf594cc6653ced571
ph1996-10-21d1t08.flac:74ed034fb649334237e4dcf3bc997b26
ph1996-10-21d1t09.flac:cd18a90f58678b628075431921e94969
ph1996-10-21d1t10.flac:f655f35bf3139d71ef025c3220559bfa
ph1996-10-21d2t01.flac:af21b6712069a14690abe11baa4e4e35
ph1996-10-21d2t02.flac:282610b5898821d5ac7603b9d55e7fc3
ph1996-10-21d2t03.flac:cfda4f8b0f3603681e8e95edd84eec84
ph1996-10-21d2t04.flac:19d774df3ed045ade83dc34b8378e6e2
ph1996-10-21d2t05.flac:14406b1eaf87044127ff4b514c82565b
ph1996-10-21d2t06.flac:26001928715da0ff537fbcf39d8a8638
ph1996-10-21d3t01.flac:af196635eedf48fcf423de27ea7ed7fc
ph1996-10-21d3t02.flac:937b7f6f8a7958406604a159cf938fd4
ph1996-10-21d3t03.flac:d4640fdbfffd0459d721ca9591dfe6cd
ph1996-10-21d3t04.flac:0ef489eb3f95014266ce4d789ff57e03
ph1996-10-21d3t05.flac:9d7768a9fd7bde1bf1f59b52b3c495ce
ph1996-10-21d3t06.flac:e94ed335fbed627dd7ff1d250e11d34e
ph1996-10-21d3t07.flac:858fbe25da6a89799a7801fbe2bf3aa0
all_wav_md5
b7d030af3976acef53da00bfc89e8fe8 *ph1996-10-21d1t01.wav
a57a8f1fe195195080ed6b7eae9eda2e *ph1996-10-21d1t02.wav
d585be81ac567ac333c93ee60a60d412 *ph1996-10-21d1t03.wav
607b0aeae10a7f122235ffa698acbd17 *ph1996-10-21d1t04.wav
888a61f99e4241734680fb625b69d98c *ph1996-10-21d1t05.wav
a1c65020acf1a3cee7ba8f7c87bb6d98 *ph1996-10-21d1t06.wav
d9f2e2bbb52ca9cd03e8849bae58563c *ph1996-10-21d1t07.wav
6cf7b75ef38b5c3f97ddb6765c2e6f74 *ph1996-10-21d1t08.wav
e00e6cd32fb3337eccc45c3605c63145 *ph1996-10-21d1t09.wav
6c24a8d2c7b7c335b857fd6b222ea15a *ph1996-10-21d1t10.wav
b2c4478aaa7efaa9d5ac16b6a14100b1 *ph1996-10-21d2t01.wav
5d1d3c693e352dd9e8340eca3d1391d7 *ph1996-10-21d2t02.wav
1844a9da2e01925b1bb4debf6b60170e *ph1996-10-21d2t03.wav
a2974eaf0ffd6571161ef54e831087a7 *ph1996-10-21d2t04.wav
0a472cadd9948317e90b6ac065c98e8e *ph1996-10-21d2t05.wav
e16202f488b7b6c6e93707f152e8577e *ph1996-10-21d2t06.wav
43ea0f32efde5f51d5ed6e68b8be5809 *ph1996-10-21d3t01.wav
a41257d646e1e46a1327f4b2d081d5be *ph1996-10-21d3t02.wav
e8162e6ee2163db3c7a4556c24092e2f *ph1996-10-21d3t03.wav
3fabd65b672557c43ca17a268079ff36 *ph1996-10-21d3t04.wav
9a5a6c71898ee73a4b45cf3de2a3e3eb *ph1996-10-21d3t05.wav
597be23828a63ff936f41a179fcd8859 *ph1996-10-21d3t06.wav
027486b1441564b5f97e7347792871a0 *ph1996-10-21d3t07.wav

Comments
Add Comment
Other Sources (comments)
B+K 4021 > DA-P1 @48kHz... (0) B+K 4021 (ORTF) > EAA PSP-2... (3) Scheops CMC6/mk4 > Sonosax... (0) flac16; Schoeps... (0) flac16, 48kHz;... (0)
Date User Comment