Browse Collections Artists Sources   Search Dates

Add Show    List Management    Help


The Slip 09/06/98
High Sierra Music Festival, Bear Valley, CA
Comments Add Comment    Source Collectors    Add to Collection    Add to Want List    History
Source # 89368 Other Sources
Entered by
Checksums flac.ffp , flac.md5
Disc Counts 1 / 1
Media Size
Date Circulated
Date Added
04/21/05
01/05/2008
Source Summary Source: SBD + akg414's> Mackie 1404> P1
Transfer: Sony PCM-r500> Audiophile 2496> Samplitude 5.5> Cool Edit Pro to increase amplitude> CD Wave Editor> FLAC
New transfer of this source: http://db.etree.org/shninfo_detail.php?shnid=5350 
Source Information - Download Text | Download Zip
The Slip - 9/6/98
High Sierra Music Festival - Showcase Stage

Source: SBD + akg414's> Mackie 1404> P1> D8 (recorded by Whitney Padgett, Jason Booth and I were both patched out of him. This is a new transfer of this source: http://db.etree.org/shninfo_detail.php?shnid=5350)

Transfer: Sony PCM-r500> Audiophile 2496> Samplitude 5.5> Cool Edit Pro to increase amplitude> CD Wave Editor> FLAC on 4/21/05 by EEE

1. The Chicken*
2. Phase One
3. Highlands
4. Yellow Medicine
5. Honey Melon$

*with Schleigho
$with Graham Wiggins from Dr. Didg
$with Travis (percussion) and Kang (fiddle) from String Cheese Incident


SHNTOOL OUTPUT:
    length     expanded size   cdr  WAVE problems filename
    12:27.10      131794364    ---   --   -----   theslip1998-09-06d1t01.wav
    11:06.43      117583580    ---   --   -----   theslip1998-09-06d1t02.wav
     9:36.66      101761676    ---   --   -----   theslip1998-09-06d1t03.wav
    13:55.29      147362252    ---   --   -----   theslip1998-09-06d1t04.wav
    18:44.23      198327740    ---   --   -----   theslip1998-09-06d1t05.wav
    65:50.21      696829612 B                     (totals for 5 files, 1.0000 ov
erall compression ratio)

Show Checksums
flac.ffp
theslip1998-09-06d1t03.flac:bf4c86ea1ce262e2952d97ab8f337bff
theslip1998-09-06d1t04.flac:7683b242e608ea343eda49d0d8977812
theslip1998-09-06d1t05.flac:d0dedc2e7547289519cb8afc6804d33c
theslip1998-09-06d1t01.flac:7d9950b9ed590bcae7ea4368756b723c
theslip1998-09-06d1t02.flac:cff408c179806f88aa309771fa70be46

flac.md5
10d6a2dcd3631a05ae2e6858ef44223e *theslip1998-09-06d1t01.flac
a32fdd85c825882ecb1d559a9ddf3098 *theslip1998-09-06d1t02.flac
aa0c020f20487a962326886b4209f453 *theslip1998-09-06d1t03.flac
34d81134f243e7220c2849860ea0f7a1 *theslip1998-09-06d1t04.flac
1b51bf9bdaeb25ba6912cfcd7324b7aa *theslip1998-09-06d1t05.flac

Comments
Add Comment
Other Sources (comments)
Recorded and transfered by... (0)
Date User Comment