Browse Collections Artists Sources   Search Dates

Add Show    List Management    Help


Phish 12/30/93
Cumberland County Civic Center, Portland, ME
Comments Add Comment    Source Collectors    Add to Collection    Add to Want List    History
Source # 89374 Other Sources
Entered by Jason Sobel
Checksums all_ffp , all_wav_md5
Disc Counts 2 / 2
Media Size
Date Circulated
Date Added
01/05/2008
01/05/2008
Source Summary (FOB) Schoeps mk4(set 1)/mk21(set 2 > kc5 > cmc5 > Sonosax SX-M2 > Apogee AD-500e > Sony D10 Pro II (@ 48 kHz); Tascam DA-20MKII > Tascam HD-P2 > WaveLab 5.01b (splice, fades) > r8brain v1.9 (48 to 44.1 kHz) > CD Wave v1.96.1 > FLAC v1.2.1 (Level 8); Taped by Eliot Byron; Transferred by Jason Sobel 
Source Information - Download Text | Download Zip
Phish
December 30, 1993
Cumberland County Civic Center
Portland, ME

source:
set 1: (FOB) Schoeps mk4 > kc5 > cmc5 > Sonosax SX-M2 > Apogee AD-500e > Sony D10 Pro II (@ 48 kHz)
set 2: (FOB) Schoeps mk21 > kc5 > cmc5 > Sonosax SX-M2 > Apogee AD-500e > Sony D10 Pro II (@ 48 kHz)

transfer:
Tascam DA-20MKII > Tascam HD-P2 > CF card > usb 2.0 > pc > WaveLab 5.01b (splice, fades) > r8brain v1.9 (resample to 44.1 kHz) > CD Wave v1.96.1 > FLAC v1.2.1 (Level 8)

FLAC tags added with metaflac v1.2.1

taped by Eliot Byron
transferred by Jason Sobel ([email protected])
seeded January 5, 2008

notes:
The original 48 kHz .wav files from the DAT transfer have been archived, and are available upon request.
Big thanks to Eliot for letting me borrow the master DATs!

Disc 1 - [73:01]
Set I
01 - [12:19] - David Bowie
02 - [05:19] - Weigh
03 - [06:19] - The Curtain >
04 - [05:01] - Sample in a Jar
05 - [04:18] - Paul and Silas
06 - [11:57] - Colonel Forbin's Ascent >
07 - [06:25] - The Famous Mockingbird
08 - [06:01] - Rift
09 - [11:07] - Bathtub Gin
10 - [04:14] - Freebird

Disc 2 - [74:45]
Set II
01 - [03:36] - 2001 >
02 - [12:43] - Mike's Song ->
03 - [01:46] - The Horse >
04 - [04:40] - Silent in the Morning
05 - [07:14] - Punch You in the Eye
06 - [08:53] - McGrupp and the Watchful Hosemasters
07 - [07:31] - Weekapaug Groove >
08 - [05:32] - Purple Rain >
09 - [01:15] - HYHU
10 - [09:26] - Slave to the Traffic Light
11 - [03:10] - encore break
12 - [02:27] - Rocky Top
13 - [06:31] - Good Times Bad Times

splice notes:
Eliot's master DATs had some real bad digi-noise at the beginnging of each set.
In both cases, I used Dave Flaschner's DATs to fix the digi-noise.

Dave's recording of the first set was overloaded, so after the show he got a copy of
Eliot's recording for the first set.  Because of this, I was able to splice in a clean copy
of Eliot's source from Dave's DAT, and we've got a complete, clean copy of Eliot's recording for set 1.

For set 2, I used Dave's source to patch in the start of "2001".

Here are the details on that source:
(FOB) AKG 460b/ck61 > custom pre-amp > Teac DA-P20 (@ 48 kHz)
(de-emphasized with WaveLab 5.01b and the Waves Q10 Paragraphic EQ (v5.0) plug-in)
taped by Dave Flaschner and Tom McMinn
and according to Dave:
"up front in the sweet spot, Eliot's stand was right behind ours"

So for set 2, I used Dave's (FOB) AKG source to fix the start of "2001".
Eliot's Schoeps source kicks in at [00:53]
It's a smooth and subtle transition, because both Eliot's and Dave's recording sounds similar.
One might expect this, given that they taped the show from basically the same spot.
The sweet spot indeed.

All editing/splicing was done at 48 kHz.

----------------------------------------------------------------------------------------------------------

SHNtool output:

    length     expanded size   cdr  WAVE problems filename
    12:19.04      130369052    ---   --   ---xx   ph1993-12-30d1t01.flac
     5:19.12       56299868    ---   --   ---xx   ph1993-12-30d1t02.flac
     6:18.72       66848588    ---   --   ---xx   ph1993-12-30d1t03.flac
     5:01.31       53169356    ---   --   ---xx   ph1993-12-30d1t04.flac
     4:17.71       45501836    ---   --   ---xx   ph1993-12-30d1t05.flac
    11:57.33      126556460    ---   --   ---xx   ph1993-12-30d1t06.flac
     6:25.34       67994012    ---   --   ---xx   ph1993-12-30d1t07.flac
     6:00.47       63614588    ---   --   ---xx   ph1993-12-30d1t08.flac
    11:06.53      117607100    ---   --   ---xx   ph1993-12-30d1t09.flac
     4:14.18       44847980    ---   --   ---xx   ph1993-12-30d1t10.flac
     3:36.25       38161244    ---   --   ---xx   ph1993-12-30d2t01.flac
    12:43.10      134616764    ---   --   ---xx   ph1993-12-30d2t02.flac
     1:46.32       18773708    ---   --   ---xx   ph1993-12-30d2t03.flac
     4:40.08       49410860    ---   --   ---xx   ph1993-12-30d2t04.flac
     7:14.13       76588220    ---   --   ---xx   ph1993-12-30d2t05.flac
     8:52.71       94011836    ---   --   ---xx   ph1993-12-30d2t06.flac
     7:30.70       79544684    ---   --   ---xx   ph1993-12-30d2t07.flac
     5:31.58       58524860    ---   --   ---xx   ph1993-12-30d2t08.flac
     1:14.51       13173596    ---   --   ---xx   ph1993-12-30d2t09.flac
     9:26.15       99877724    ---   --   ---xx   ph1993-12-30d2t10.flac
     3:10.23       33570140    ---   --   ---xx   ph1993-12-30d2t11.flac
     2:27.13       25961420    ---   --   ---xx   ph1993-12-30d2t12.flac
     6:30.61       68939516    ---   --   ---xx   ph1993-12-30d2t13.flac
   147:46.00     1563963412 B                     (totals for 23 files, 0.5570 overall compression ratio)
Show Checksums
all_ffp
ph1993-12-30d1t01.flac:9e3e410fb6299bfe5a6584c6514c9ea0
ph1993-12-30d1t02.flac:549c08f3213f58a32faadbecf0686cd3
ph1993-12-30d1t03.flac:18c728e8734dea0b48d45a3e5fbc6868
ph1993-12-30d1t04.flac:bb7af3942af5962b8ccaedf6a9101bfe
ph1993-12-30d1t05.flac:5620395c3c5dca150f2f4f05af0fc1a9
ph1993-12-30d1t06.flac:f313a086fa813a52c4cc9323bc467e4c
ph1993-12-30d1t07.flac:682adbc32d121a5f375f1bdaa84a2deb
ph1993-12-30d1t08.flac:0dd478c7667415f2783344a7f8dcaf78
ph1993-12-30d1t09.flac:5dc7889009ad45f3cf0e6d44979c3d32
ph1993-12-30d1t10.flac:0c2356ed305d2de1c08e821d60d38bf0
ph1993-12-30d2t01.flac:c7de9f6accba0fbfedb4874498650740
ph1993-12-30d2t02.flac:f4b56d03f8b8e261eed197d135495054
ph1993-12-30d2t03.flac:028f23042162869f5bddabb91de5a60e
ph1993-12-30d2t04.flac:2f8fdfa720c2abbdb1fdff47e1639fa6
ph1993-12-30d2t05.flac:4ef9bd190bed2daf38a33a288792cf97
ph1993-12-30d2t06.flac:fee4653cc62854aecf234c9c965cb449
ph1993-12-30d2t07.flac:cc7a0372f204488942ba420ead2b9e8b
ph1993-12-30d2t08.flac:5c5514b2290164273fd3f2e598f80b52
ph1993-12-30d2t09.flac:43a36228de6ad04bac38288507bb8939
ph1993-12-30d2t10.flac:e0d063582faa2486ad3cf35d636dca7b
ph1993-12-30d2t11.flac:0feb92e0e937a33209ee408dc7fe4eb8
ph1993-12-30d2t12.flac:588049d304846c07e82da309e50643d2
ph1993-12-30d2t13.flac:2bacbf379ea7ae5731f41b60ea1c30e5
all_wav_md5
9e194023df1be6115e3cc6f99c2a5273 *ph1993-12-30d1t01.wav
e9b0b720233f04e5020972d83aaf365d *ph1993-12-30d1t02.wav
223a3da9473c62cf0541da5df47f30ba *ph1993-12-30d1t03.wav
a3f97980526ae5d17b3e84cb755553d7 *ph1993-12-30d1t04.wav
43701f20fa515f3aea990e2889bd760c *ph1993-12-30d1t05.wav
6a24bcaa88e51ccb2f6dbd5441bbf404 *ph1993-12-30d1t06.wav
0abe8dc330a0c89bc795e0ecbbea8d11 *ph1993-12-30d1t07.wav
04a51876748cdd4496e54768bcb52663 *ph1993-12-30d1t08.wav
e20a7a41ed75e23c7a1544cb434cb9f8 *ph1993-12-30d1t09.wav
20000ead53680ba88baf8501d3da3c3f *ph1993-12-30d1t10.wav
d5cad0cf701d1512c326a65ce23d4132 *ph1993-12-30d2t01.wav
5e96d9fb805802543f27baf5ad1010e0 *ph1993-12-30d2t02.wav
e8f58aced53cec3b84371a4b2bb5d3d0 *ph1993-12-30d2t03.wav
5809463f67a538a1d5ae512c9017630e *ph1993-12-30d2t04.wav
035d32995fd76789640b569fa43f77b9 *ph1993-12-30d2t05.wav
c908e0b68b43781826335efc7d9b6e59 *ph1993-12-30d2t06.wav
c24d4fe25dd1ac59ff893c9dbcef04bf *ph1993-12-30d2t07.wav
e96d96bdccba96e5aedcf673b6c51cdc *ph1993-12-30d2t08.wav
d9f528a8f8179767e754305ab255b482 *ph1993-12-30d2t09.wav
35373ebd382f34d2e7632cff5d6acd3c *ph1993-12-30d2t10.wav
d243569b512da921909247e70d5514c7 *ph1993-12-30d2t11.wav
dd9339486d6b68bee793db11bdca7eaa *ph1993-12-30d2t12.wav
efd7e6b00a3b7c8515379a04f23c7d1f *ph1993-12-30d2t13.wav

Comments
Add Comment
Other Sources (comments)
(was screwy, updated... (0) B&K 4011; via B. Walker (0) Neumann RSM 190i's (in TS);... (2) SBD > Panasonic 3700... (6) SBD/AUD Post-mix Matrix... (0) DTS Audio 5.1 mix based on... (0) Set 2 only: (FOB) AKG... (0) (FOB) B&K 4011s > Neumann... (2) Remaster of shnid=8548 (0)
Date User Comment