Browse Collections Artists Sources   Search Dates

Add Show    List Management    Help


Grateful Dead 08/18/89
The Greek Theatre - University of California, Berkeley, CA
Comments Add Comment    Source Collectors    Add to Collection    Add to Want List    History
Source # 89375 Other Sources
Entered by Gary Field
Checksums ffp , flac-md5
Disc Counts 2 / 3
Media Size
Date Circulated
Date Added
01/05/2008
01/05/2008
Source Summary flac16; AUD: Sennheiser MD-421's > patched thru one Sony D5 > Sony TC-D5M > Maxell MX-90's, with no Dolby. Mics on six-foot stand in OTS. Transfer: MAC > Sony TC-D5M (Dolby off) > Marantz CDR-500 > EAC > Soundforge (for fades) > CD-Wave > TLH (SBE-OK, FLAC compression, and checksums) > FLAC. Taped and transferred by Andrew F. 
  Archive
Source Information - Download Text | Download Zip
GRATEFUL DEAD
Greek Theater
Berkeley CA
08-18-1989

Disc One (65:07)

01 crowd & tuning
02 Cold Rain & Snow
03 Minglewood Blues
04 Row Jimmy
05 When I Paint My Masterpiece
06 Built to Last
07 Victim or the Crime >
08 Birdsong
09 The Promised Land
-- set break --

Disc Two (46:30)

01 Iko Iko
02 Looks Like Rain
03 Terrapin >
04 Drums >
05 Space// (tape flip)

Disc Three (52:56)

01 Space >
02 Crazy Fingers >
03 I Need a Miracle >
04 Stella Blue >
05 Throwing Stones >
06 Turn on Your Lovelight
-- encore one --
07 crowd & tuning
08 Black Muddy River
-- encore two --
09 We Bid You Goodnight

AUD: Sennheiser MD-421's > patched thru one Sony D5 > Sony TC-D5M >
Maxell MX-90's, with no Dolby. Mics on six-foot stand in OTS.

Transfer: MAC > Sony TC-D5M (Dolby off) > Marantz CDR-500 > EAC >
Soundforge (for fades) > CD-Wave > TLH (SBE-OK, FLAC compression,
and checksums) > FLAC. Taped and transferred by Andrew F.

md5

cb745ab9fa7be4c8d539350aa9e6a672 *gd1989-08-18d1t01.flac
723a2269d0e40e17f6dd7e59ddae2796 *gd1989-08-18d1t02.flac
f3ee996b06289438bcf13e1da948a4cb *gd1989-08-18d1t03.flac
2e7657fea769450826fa0782240263e8 *gd1989-08-18d1t04.flac
90f920bf63e7efaa648d8dfc9f36492c *gd1989-08-18d1t05.flac
9907d6f7ec6defa1db06db47a35a830f *gd1989-08-18d1t06.flac
bde00f08cee5c2d6a9ad014f92257f7d *gd1989-08-18d1t07.flac
cdfc5b2316c9929608009aaec2746fc1 *gd1989-08-18d1t08.flac
0d21715dccaaa6220db18609f90d0085 *gd1989-08-18d1t09.flac
343c878892c81f3c9c780a343eeafee4 *gd1989-08-18d2t01.flac
365a13cd79e28bbd929ceba95d1d6200 *gd1989-08-18d2t02.flac
34dcd8f5d1536073bc1a81cf694acbb4 *gd1989-08-18d2t03.flac
4681d1448b7e8238b09c743c0b3c486c *gd1989-08-18d2t04.flac
0f1dc12da9e81021989cccc5a3227191 *gd1989-08-18d2t05.flac
6ea151828854373ddd0c1142d3d01b52 *gd1989-08-18d3t01.flac
85e2620bbb1314b7eb09062ecd8cf60d *gd1989-08-18d3t02.flac
b124185eefa6223aeef0a3d0829fc5ff *gd1989-08-18d3t03.flac
80f43582a170401cd17b9ab13d223277 *gd1989-08-18d3t04.flac
26d76f1c962e0a1970db86b043e2ba10 *gd1989-08-18d3t05.flac
33f7b2d96653cd976f38aa9a6badb40e *gd1989-08-18d3t06.flac
6817d5bdf29e6fdad49991811cee4832 *gd1989-08-18d3t07.flac
0ed677d349820dd3a1658b3f2b6b4ca6 *gd1989-08-18d3t08.flac
211f8afe57029c23e443c6acf50da2f4 *gd1989-08-18d3t09.flac

ffp

gd1989-08-18d1t01.flac:b19d8e92a22fb0f3a71e51d32531732d
gd1989-08-18d1t02.flac:b8696892c0bc772ef18afe98c69c735d
gd1989-08-18d1t03.flac:3c7aa97adcc60220f62677b29172385a
gd1989-08-18d1t04.flac:32c0ae33d972b612fe0ad56ecb8d5f9c
gd1989-08-18d1t05.flac:6ec9258d1ec9e3cdf70b845a1c2df282
gd1989-08-18d1t06.flac:8efbc83a1870a7b5ca766f9b4da38ff7
gd1989-08-18d1t07.flac:d72832c041ffbf139d8ecdb3c6156e82
gd1989-08-18d1t08.flac:6b2dee00e64b1be6f0fd674f58d3a5d7
gd1989-08-18d1t09.flac:67008851da85bb86abe179dca2798a83
gd1989-08-18d2t01.flac:75779a92c027522a24ecb5792314ac54
gd1989-08-18d2t02.flac:04277101340645f38ddb945e55ea50ec
gd1989-08-18d2t03.flac:37f074ab4f9eb42be35c34e06b353bd7
gd1989-08-18d2t04.flac:eb2a6a96e0101adfa0ed693bb3c934c6
gd1989-08-18d2t05.flac:e20999ab90fbb7521d5553b4863d6eb5
gd1989-08-18d3t01.flac:179c052d3ecd980424d0a0c2ccc76f36
gd1989-08-18d3t02.flac:59aa470bd9053d1a333317a6c44c929c
gd1989-08-18d3t03.flac:100dce86a81b64bb27641dbb3719a3f5
gd1989-08-18d3t04.flac:33858a51114d9cabb546dee21e28c046
gd1989-08-18d3t05.flac:8c1148ed26207422a64e3144cfaa2e24
gd1989-08-18d3t06.flac:c221bf86ead53c9bf68dbea027cdd565
gd1989-08-18d3t07.flac:56ba4815b39c609fe3c79c0d23808cc2
gd1989-08-18d3t08.flac:86fc8eb721801c92b0735cf820cd61e2
gd1989-08-18d3t09.flac:79fdabb89124f78bdcd44e647b250aba

shntool

    length     expanded size   cdr  WAVE problems filename
     0:51.23        9050540    ---   --   ---xx   gd1989-08-18d1t01.flac
     8:14.04       87151052    ---   --   ---xx   gd1989-08-18d1t02.flac
     9:56.40      105228524    ---   --   ---xx   gd1989-08-18d1t03.flac
    11:39.40      123397724    ---   --   ---xx   gd1989-08-18d1t04.flac
     5:39.38       59889020    ---   --   ---xx   gd1989-08-18d1t05.flac
     6:14.14       66006572    ---   --   ---xx   gd1989-08-18d1t06.flac
     6:06.41       64658876    ---   --   ---xx   gd1989-08-18d1t07.flac
    11:46.25      124597244    ---   --   ---xx   gd1989-08-18d1t08.flac
     4:39.57       49349708    ---   --   ---xx   gd1989-08-18d1t09.flac
     6:48.61       72114716    ---   --   ---xx   gd1989-08-18d2t01.flac
    10:11.68      107940380    ---   --   ---xx   gd1989-08-18d2t02.flac
    12:33.23      132883340    ---   --   ---xx   gd1989-08-18d2t03.flac
    11:20.31      120024956    ---   --   ---xx   gd1989-08-18d2t04.flac
     5:35.68       59253980    ---   --   ---xx   gd1989-08-18d2t05.flac
     4:15.38       45071420    ---   --   ---xx   gd1989-08-18d3t01.flac
     9:02.30       95679404    ---   --   ---xx   gd1989-08-18d3t02.flac
     4:39.07       49232108    ---   --   ---xx   gd1989-08-18d3t03.flac
     8:48.59       93278012    ---   --   ---xx   gd1989-08-18d3t04.flac
     8:43.24       92313692    ---   --   ---xx   gd1989-08-18d3t05.flac
     6:42.67       71070428    ---   --   ---xx   gd1989-08-18d3t06.flac
     1:04.69       11451932    ---   --   ---xx   gd1989-08-18d3t07.flac
     6:21.53       67333100    ---   --   ---xx   gd1989-08-18d3t08.flac
     3:18.15       34962524    ---   --   ---xx   gd1989-08-18d3t09.flac
   164:34.70     1741939252 B                     (totals for 23 files, 0.5350 overall compression ratio)

There were no sector boundary errors.
Show Checksums
ffp
gd1989-08-18d1t01.flac:b19d8e92a22fb0f3a71e51d32531732d
gd1989-08-18d1t02.flac:b8696892c0bc772ef18afe98c69c735d
gd1989-08-18d1t03.flac:3c7aa97adcc60220f62677b29172385a
gd1989-08-18d1t04.flac:32c0ae33d972b612fe0ad56ecb8d5f9c
gd1989-08-18d1t05.flac:6ec9258d1ec9e3cdf70b845a1c2df282
gd1989-08-18d1t06.flac:8efbc83a1870a7b5ca766f9b4da38ff7
gd1989-08-18d1t07.flac:d72832c041ffbf139d8ecdb3c6156e82
gd1989-08-18d1t08.flac:6b2dee00e64b1be6f0fd674f58d3a5d7
gd1989-08-18d1t09.flac:67008851da85bb86abe179dca2798a83
gd1989-08-18d2t01.flac:75779a92c027522a24ecb5792314ac54
gd1989-08-18d2t02.flac:04277101340645f38ddb945e55ea50ec
gd1989-08-18d2t03.flac:37f074ab4f9eb42be35c34e06b353bd7
gd1989-08-18d2t04.flac:eb2a6a96e0101adfa0ed693bb3c934c6
gd1989-08-18d2t05.flac:e20999ab90fbb7521d5553b4863d6eb5
gd1989-08-18d3t01.flac:179c052d3ecd980424d0a0c2ccc76f36
gd1989-08-18d3t02.flac:59aa470bd9053d1a333317a6c44c929c
gd1989-08-18d3t03.flac:100dce86a81b64bb27641dbb3719a3f5
gd1989-08-18d3t04.flac:33858a51114d9cabb546dee21e28c046
gd1989-08-18d3t05.flac:8c1148ed26207422a64e3144cfaa2e24
gd1989-08-18d3t06.flac:c221bf86ead53c9bf68dbea027cdd565
gd1989-08-18d3t07.flac:56ba4815b39c609fe3c79c0d23808cc2
gd1989-08-18d3t08.flac:86fc8eb721801c92b0735cf820cd61e2
gd1989-08-18d3t09.flac:79fdabb89124f78bdcd44e647b250aba
flac-md5
cb745ab9fa7be4c8d539350aa9e6a672 *gd1989-08-18d1t01.flac
723a2269d0e40e17f6dd7e59ddae2796 *gd1989-08-18d1t02.flac
f3ee996b06289438bcf13e1da948a4cb *gd1989-08-18d1t03.flac
2e7657fea769450826fa0782240263e8 *gd1989-08-18d1t04.flac
90f920bf63e7efaa648d8dfc9f36492c *gd1989-08-18d1t05.flac
9907d6f7ec6defa1db06db47a35a830f *gd1989-08-18d1t06.flac
bde00f08cee5c2d6a9ad014f92257f7d *gd1989-08-18d1t07.flac
cdfc5b2316c9929608009aaec2746fc1 *gd1989-08-18d1t08.flac
0d21715dccaaa6220db18609f90d0085 *gd1989-08-18d1t09.flac
343c878892c81f3c9c780a343eeafee4 *gd1989-08-18d2t01.flac
365a13cd79e28bbd929ceba95d1d6200 *gd1989-08-18d2t02.flac
34dcd8f5d1536073bc1a81cf694acbb4 *gd1989-08-18d2t03.flac
4681d1448b7e8238b09c743c0b3c486c *gd1989-08-18d2t04.flac
0f1dc12da9e81021989cccc5a3227191 *gd1989-08-18d2t05.flac
6ea151828854373ddd0c1142d3d01b52 *gd1989-08-18d3t01.flac
85e2620bbb1314b7eb09062ecd8cf60d *gd1989-08-18d3t02.flac
b124185eefa6223aeef0a3d0829fc5ff *gd1989-08-18d3t03.flac
80f43582a170401cd17b9ab13d223277 *gd1989-08-18d3t04.flac
26d76f1c962e0a1970db86b043e2ba10 *gd1989-08-18d3t05.flac
33f7b2d96653cd976f38aa9a6badb40e *gd1989-08-18d3t06.flac
6817d5bdf29e6fdad49991811cee4832 *gd1989-08-18d3t07.flac
0ed677d349820dd3a1658b3f2b6b4ca6 *gd1989-08-18d3t08.flac
211f8afe57029c23e443c6acf50da2f4 *gd1989-08-18d3t09.flac

Comments
Add Comment
Other Sources (comments)
Healy Matrix Digital SBD >... (4) Jay Ashley (Bertha)... (1) Seamless fix of (0) flac16; Recording... (0) flac16; LINEAGE: 2x... (0) flac16; RECORDED BY:... (0) flac16; Source: 2... (0) flac16; Source info:... (0) flac24 96khz Akg... (0) flac16 44.1khz ... (0) flac24; Set 2... (0) flac24; Set 2... (0) flac16; Recording... (0) flac16; Set 2... (0)
Date User Comment