Browse Collections Artists Sources   Search Dates

Add Show    List Management    Help


Phish 12/30/93
Cumberland County Civic Center, Portland, ME
Comments Add Comment    Source Collectors    Add to Collection    Add to Want List    History
Source # 89378 Other Sources
Entered by Jason Sobel
Checksums all_ffp , all_wav_md5
Disc Counts 1 / 1
Media Size
Date Circulated
Date Added
01/05/2008
01/06/2008
Source Summary Set 2 only: (FOB) AKG 460b/ck61 > custom pre-amp > Teac DA-P20 (@ 48 kHz); Tascam DA-20MKII > Tascam HD-P2 > WaveLab 5.01b (de-emphasis, fades) > r8brain v1.9 (48 to 44.1 kHz) > CD Wave v1.96.1 > FLAC v1.2.1 (Level 8); Taped by Dave Flaschner and Tom McMinn; Transferred by Jason Sobel 
Source Information - Download Text | Download Zip
Phish
December 30, 1993
Cumberland County Civic Center
Portland, ME

source:
(FOB) AKG 460b/ck61 > custom pre-amp > Teac DA-P20 (@ 48 kHz)

transfer:
Tascam DA-20MKII > Tascam HD-P2 > CF card > usb 2.0 > pc > WaveLab 5.01b (de-emphasis, fades) > r8brain v1.9 (resample to 44.1 kHz) > CD Wave v1.96.1 > FLAC v1.2.1 (Level 8)

FLAC tags added with metaflac v1.2.1

taped by Dave Flaschner and Tom McMinn
transferred by Jason Sobel ([email protected])
seeded January 5, 2008

notes:
The original DAT recording was made with pre-emphasis.
The Waves Q10 Paragraphic EQ (v5.0) plug-in was used to de-emphasize the recording.
The original 48 kHz .wav files from the DAT transfer have been archived, and are available upon request.
Big thanks to Dave for letting me borrow the master DAT!

Set II - [74:56]
01 - [03:36] - 2001 >
02 - [12:43] - Mike's Song ->
03 - [01:46] - The Horse >
04 - [04:39] - Silent in the Morning
05 - [07:16] - Punch You in the Eye
06 - [08:53] - McGrupp and the Watchful Hosemasters
07 - [07:32] - Weekapaug Groove >
08 - [05:31] - Purple Rain >
09 - [01:14] - HYHU
10 - [09:28] - Slave to the Traffic Light
11 - [03:09] - encore break
12 - [02:28] - Rocky Top
13 - [06:42] - Good Times Bad Times

note:
This is only set 2.
Dave and Tom's source for the first set was no good, so they got a clone of Eliot's FOB Schoeps for set 1.
According to Dave:
"I overloaded the pre on the first set, so thats Eliot Byron's first set.
His stand was right behind ours.  We were up front in the sweet spot."
Even though this source is only set 2, it sounds great, so I seeded it anyway.

------------------------------------------------------------------------------------------------------------

SHNtool output:

    length     expanded size   cdr  WAVE problems filename
     3:35.69       38088332    ---   --   ---xx   ph1993-12-30set2t01.flac
    12:43.31      134666156    ---   --   ---xx   ph1993-12-30set2t02.flac
     1:45.66       18677276    ---   --   ---xx   ph1993-12-30set2t03.flac
     4:38.45       49145084    ---   --   ---xx   ph1993-12-30set2t04.flac
     7:16.19       76955132    ---   --   ---xx   ph1993-12-30set2t05.flac
     8:52.39       93936572    ---   --   ---xx   ph1993-12-30set2t06.flac
     7:31.48       79669340    ---   --   ---xx   ph1993-12-30set2t07.flac
     5:31.19       58433132    ---   --   ---xx   ph1993-12-30set2t08.flac
     1:14.35       13135964    ---   --   ---xx   ph1993-12-30set2t09.flac
     9:27.70      100183484    ---   --   ---xx   ph1993-12-30set2t10.flac
     3:08.60       33304364    ---   --   ---xx   ph1993-12-30set2t11.flac
     2:27.61       26074316    ---   --   ---xx   ph1993-12-30set2t12.flac
     6:41.38       70825820    ---   --   ---xx   ph1993-12-30set2t13.flac
    74:56.00      793094972 B                     (totals for 13 files, 0.5152 overall compression ratio)
Show Checksums
all_ffp
ph1993-12-30set2t01.flac:0faf308e46f5889cc616c072d97bc764
ph1993-12-30set2t02.flac:7cd753ddb02fd62b937f6c4e22e773c4
ph1993-12-30set2t03.flac:c1aae2e01d45e560b4238c386117ba32
ph1993-12-30set2t04.flac:63e8565a6ed481406cd95caee9a46ae9
ph1993-12-30set2t05.flac:1762387021c1ea858b7cc9b4da0b8d41
ph1993-12-30set2t06.flac:2fa2207e02dfca38505411c4e405758a
ph1993-12-30set2t07.flac:51ebddd35a593bd2668f5ad2862d0d41
ph1993-12-30set2t08.flac:f6863acdf3a5dad4e81b524bf924a89d
ph1993-12-30set2t09.flac:cfeaa17731b96a0a501287722df04b22
ph1993-12-30set2t10.flac:4c458187aa19203de5596a8ebc7ba6c1
ph1993-12-30set2t11.flac:a89b2619fc81bc1ec37bf2fc4c45ce10
ph1993-12-30set2t12.flac:678fec1a94e93d68b5e2cd7cbe8ac5b7
ph1993-12-30set2t13.flac:babdd975b28824e3f64763430193c982
all_wav_md5
6bda460778ca76bf20dd053de8161ce6 *ph1993-12-30set2t01.wav
3e8fbc1faab0b9658f0afcbeb5d1d233 *ph1993-12-30set2t02.wav
5585f0f57f25cfa0158c3e3ad8f63f62 *ph1993-12-30set2t03.wav
4f9f4022ab636730d259f739c5c59f5a *ph1993-12-30set2t04.wav
d2713dc301a60dd01d42710440d55887 *ph1993-12-30set2t05.wav
89de26cd19903c5a6b80e40c2ead0825 *ph1993-12-30set2t06.wav
5d6379cdbb3f957b97ca6d150b84917c *ph1993-12-30set2t07.wav
4060919ecb15b36c94d904c14964d6dd *ph1993-12-30set2t08.wav
c27ae2c53a88f71321b42039e3a42164 *ph1993-12-30set2t09.wav
ec809f6cfe4f7493ac7c5c7a9b8708f0 *ph1993-12-30set2t10.wav
3c92cc0755293e0a75c283cf18ccb10c *ph1993-12-30set2t11.wav
6dab6253009a2372342277a3773ab977 *ph1993-12-30set2t12.wav
4b17c34b40c5ac76a89fae2eaa0fd283 *ph1993-12-30set2t13.wav

Comments
Add Comment
Other Sources (comments)
(was screwy, updated... (0) B&K 4011; via B. Walker (0) Neumann RSM 190i's (in TS);... (2) SBD > Panasonic 3700... (6) SBD/AUD Post-mix Matrix... (0) DTS Audio 5.1 mix based on... (0) (FOB) Schoeps mk4(set... (0) (FOB) B&K 4011s > Neumann... (2) Remaster of shnid=8548 (0)
Date User Comment