Browse Collections Artists Sources   Search Dates

Add Show    List Management    Help


Phish 02/20/93
Roxy Theater, Atlanta, GA
Comments Add Comment    Source Collectors    Add to Collection    Add to Want List    History
Source # 89390 Other Sources
Entered by Terry Watts
Checksums FFP , WAV
Disc Counts 2 / 3
Media Size
Date Circulated
Date Added
01/06/2008
01/06/2008
Source Summary flac16, 44kHz; AKG c451b > Sony TCD-D3 > DAT(c); DAT(c) > Tascam DA-20 mkII > Tascam HD-P2 > WaveLab > CDWave > FLAC; Source by Mike Stoll (?); Transfer by Jason Sobel 
Source Information - Download Text | Download Zip
Phish
February 20, 1993
Roxy Theatre
Atlanta, GA

source:
AKG 451 > Sony D3 (@ 48 kHz)
(recorded at soundboard)

transfer:
Tascam DA-20MKII > Tascam HD-P2 > CF card > usb 2.0 > pc > WaveLab 5.01b (de-emphasis, fades, resample to 44.1 kHz) > CD Wave v1.96.1 > FLAC v1.2.1 (Level 8)

FLAC tags added with metaflac v1.2.1

recorded by Mike Stoll (?)
transferred by Jason Sobel ([email protected])
seeded January 6, 2008

notes:
The original DAT recording was made with pre-emphasis.
The Waves Q10 Paragraphic EQ (v5.0) plug-in was used to de-emphasize the recording.
The original 48 kHz .wav files from the DAT transfer have been archived, and are available upon request.
Big thanks to Eliot Byron for letting me borrow his DATs!

Disc 1 - [75:31]
Set I
01 - [00:57] - intro
02 - [04:35] - Golgi Apparatus
03 - [08:56] - Foam
04 - [03:38] - The Sloth
05 - [10:21] - Possum >
06 - [05:05] - Weigh
07 - [02:48] - All Things Reconsidered
08 - [13:38] - The Divided Sky
09 - [01:39] - The Horse >
10 - [05:04] - Silent in the Morning
11 - [14:21] - Fluffhead
12 - [04:31] - Cavern

Disc 2 - [60:37]
Set II
01 - [07:13] - Wilson >
02 - [13:35] - Reba
03 - [05:29] - Tweezer ->
04 - [03:44] - Walk Away ->
05 - [01:49] - Tweezer >
06 - [04:31] - Glide >
07 - [08:03] - Mike's Song ->
08 - [00:55] - My Mind's Got a Mind of its Own ->
09 - [01:02] - Mike's Song >
10 - [01:27] - Vibration of Life ->
11 - [01:38] - Kung ->
12 - [03:01] - I Am Hydrogen >
13 - [02:59] - Weekapaug Groove ->
14 - [01:48] - Have Mercy ->
15 - [01:05] - Weekapaug Groove ->
16 - [00:53] - Rock and Roll All Nite jam ->
17 - [01:26] - Weekapaug Groove

Disc 3 - [43:15]
Set II continued
01 - [05:07] - Fast Enough for You >
02 - [02:44] - Big Ball Jam >
03 - [00:45] - HYHU >
04 - [11:02] - Terrapin >
05 - [00:51] - HYHU ->
06 - [13:09] - Harry Hood
07 - [03:16] - Tweezer Reprise
08 - [06:20] - (encore) Sleeping Monkey


show notes:
- This long version of Wilson included a Simpsons Signal and, towards the end, a freakish jam that included an Iron Man tease from Mike.
- Reba included a tease of the theme from Woody Woodpecker.
- Tweezer had a Low Rider jam and a "Straight From the Sewer" rap.
- Glide included Tweezer teases.
- Mike's Song featured minor lyric changes, three different Tweezer teases, two different Wilson teases, and other teases of Reba, Lizards, and Stash.
- Mike teased the Esther "circus" theme in Hydrogen.
- The Rock and Roll All Nite jam was for a fan dressed as Kiss' Gene Simmons, who the band brought on stage to sing the song's chorus.
- Terrapin featured band intros and lots of chatter from Fish, prompting a hurry-up HYHU tease from Page.

--------------------------------------------------------------------------------------------------

SHNtool output:

    length     expanded size   cdr  WAVE problems filename
     0:56.70       10043084    ---   --   ---xx   ph1993-02-20d1t01.flac
     4:35.29       48578252    ---   --   ---xx   ph1993-02-20d1t02.flac
     8:55.43       94475180    ---   --   ---xx   ph1993-02-20d1t03.flac
     3:37.55       38408204    ---   --   ---xx   ph1993-02-20d1t04.flac
    10:21.05      109556204    ---   --   ---xx   ph1993-02-20d1t05.flac
     5:04.60       53766764    ---   --   ---xx   ph1993-02-20d1t06.flac
     2:47.57       29592908    ---   --   ---xx   ph1993-02-20d1t07.flac
    13:37.48      144231740    ---   --   ---xx   ph1993-02-20d1t08.flac
     1:38.38       17376620    ---   --   ---xx   ph1993-02-20d1t09.flac
     5:04.15       53660924    ---   --   ---xx   ph1993-02-20d1t10.flac
    14:20.42      151802828    ---   --   ---xx   ph1993-02-20d1t11.flac
     4:30.63       47776220    ---   --   ---xx   ph1993-02-20d1t12.flac
     7:13.34       76461212    ---   --   ---xx   ph1993-02-20d2t01.flac
    13:35.20      143813084    ---   --   ---xx   ph1993-02-20d2t02.flac
     5:28.61       58002716    ---   --   ---xx   ph1993-02-20d2t03.flac
     3:43.49       39452492    ---   --   ---xx   ph1993-02-20d2t04.flac
     1:49.16       19265276    ---   --   ---xx   ph1993-02-20d2t05.flac
     4:30.54       47755052    ---   --   ---xx   ph1993-02-20d2t06.flac
     8:02.71       85191836    ---   --   ---xx   ph1993-02-20d2t07.flac
     0:55.37        9789068    ---   --   ---xx   ph1993-02-20d2t08.flac
     1:02.07       10953308    ---   --   ---xx   ph1993-02-20d2t09.flac
     1:26.48       15283340    ---   --   ---xx   ph1993-02-20d2t10.flac
     1:37.48       17223740    ---   --   ---xx   ph1993-02-20d2t11.flac
     3:00.50       31869644    ---   --   ---xx   ph1993-02-20d2t12.flac
     2:58.64       31549772    ---   --   ---xx   ph1993-02-20d2t13.flac
     1:48.01       19053596    ---   --   ---xx   ph1993-02-20d2t14.flac
     1:04.68       11449580    ---   --   ---xx   ph1993-02-20d2t15.flac
     0:53.11        9375116    ---   --   ---xx   ph1993-02-20d2t16.flac
     1:25.65       15146924    ---   --   ---xx   ph1993-02-20d2t17.flac
     5:06.47       54088988    ---   --   ---xx   ph1993-02-20d3t01.flac
     2:44.06       28943756    ---   --   ---xx   ph1993-02-20d3t02.flac
     0:45.35        8020364    ---   --   ---xx   ph1993-02-20d3t03.flac
    11:02.32      116852108    ---   --   ---xx   ph1993-02-20d3t04.flac
     0:51.27        9059948    ---   --   ---xx   ph1993-02-20d3t05.flac
    13:09.03      139186700    ---   --   ---xx   ph1993-02-20d3t06.flac
     3:15.63       34546220    ---   --   ---xx   ph1993-02-20d3t07.flac
     6:19.58       66992060    ---   --   ---xx   ph1993-02-20d3t08.flac
   179:23.00     1898594828 B                     (totals for 37 files, 0.5025 overall compression ratio)

Show Checksums
FFP
ph1993-02-20d1t01.flac:a46aa402601062361a3245cfca325894
ph1993-02-20d1t02.flac:f21448f45f685649165d1295146e029d
ph1993-02-20d1t03.flac:4f55ddc5115495cf11aa3b7d4c21ba88
ph1993-02-20d1t04.flac:6d62c5848b5f9323eed552e0bf405211
ph1993-02-20d1t05.flac:c16571f62cbde4d559730717b65da64c
ph1993-02-20d1t06.flac:aee4201b4ccd020fe70934d93bbe6a4d
ph1993-02-20d1t07.flac:54812af41f72d3624f4ab03b1a7404ec
ph1993-02-20d1t08.flac:f537e5c640034f726ec39f6c7e1dc15d
ph1993-02-20d1t09.flac:916b7285538f2b9e477714db5f12c846
ph1993-02-20d1t10.flac:4740c7e1e002bc169add0d2687866de2
ph1993-02-20d1t11.flac:01cbc2d86c41bcbf15dbe38337685502
ph1993-02-20d1t12.flac:fb65a4d8f740d2042fa3b94c6a6abc0c
ph1993-02-20d2t01.flac:fcccb43d6237d551f65e94f1e7aebf57
ph1993-02-20d2t02.flac:f3d87a9643d518051f9ab265d3f97ffe
ph1993-02-20d2t03.flac:0d8357ae53868a95907de16f71ff82fd
ph1993-02-20d2t04.flac:2949eddff7475af5cb72e9f8962c3d58
ph1993-02-20d2t05.flac:eddf4c331432b572bbc9c2cbccea5ed2
ph1993-02-20d2t06.flac:af29839e9ffaa47f5238348912e4ff95
ph1993-02-20d2t07.flac:981ce63ea133f648e20eed669085b994
ph1993-02-20d2t08.flac:0d74888e0352ca9b8d2daf3762f9f4c5
ph1993-02-20d2t09.flac:ccdaa9da8a7d733d7b47428cb56298a3
ph1993-02-20d2t10.flac:af0dcf0ec80af90053e8fda4d1937d4b
ph1993-02-20d2t11.flac:c720a661e49bad458e6100c156bb4931
ph1993-02-20d2t12.flac:f4c58b387442ad4e025ab8c634cacbf7
ph1993-02-20d2t13.flac:e605f952efb36a183272b8ef518efaf5
ph1993-02-20d2t14.flac:0c83a50b3e4e19a852c32b7c906d40ca
ph1993-02-20d2t15.flac:94ed9df7ae986c8b16e70a29d4d241c5
ph1993-02-20d2t16.flac:11a25310f901cf02be9dbd2bcea76e54
ph1993-02-20d2t17.flac:e64b0cf4e09d482cefe88ca93677d0cb
ph1993-02-20d3t01.flac:5453901c55cdb161af324b8b41fecb96
ph1993-02-20d3t02.flac:4c8fac34c2757482c6d974c052619a3b
ph1993-02-20d3t03.flac:9a65d9a61666fbec70b898d6d0361c25
ph1993-02-20d3t04.flac:6b5ebc6dc4780e3932bf609bb4fe104e
ph1993-02-20d3t05.flac:d7e73bab80aa8aec37fafdee4cf6b8c5
ph1993-02-20d3t06.flac:cfb93569978f2a1d942c19905932c108
ph1993-02-20d3t07.flac:e71f012ce9705abd8e6c29512d72c356
ph1993-02-20d3t08.flac:89e40a61607c4fd8aec220abf488c93b
WAV
071a49faba4b5fa42a91c2d5b824bb22 *ph1993-02-20d1t01.wav
c3f2f648bba681dbe2a6ce46f3f8b1ec *ph1993-02-20d1t02.wav
c38b32d6593cc6d40ad24c8d17427cbc *ph1993-02-20d1t03.wav
0fca3dfb74d5a2dc373fef6f612816dd *ph1993-02-20d1t04.wav
49e55b5232263efce845db0a6f5cbcfd *ph1993-02-20d1t05.wav
f92fa083e0af9707259ab8095915376a *ph1993-02-20d1t06.wav
62a763578bec6ab7342adb74fa8dc169 *ph1993-02-20d1t07.wav
bcc7bb1484a7eca343423db6c429c0bd *ph1993-02-20d1t08.wav
20d7262364e352f5f726de557f39374d *ph1993-02-20d1t09.wav
8550713e7122e3c10a67932ade5529e5 *ph1993-02-20d1t10.wav
8542586b6ba6db7fd69d7fa4903cbf8f *ph1993-02-20d1t11.wav
a55e1e6e7d075be41759e2ccee404a05 *ph1993-02-20d1t12.wav
3230017e57d1969a0385c0dabfe55b4c *ph1993-02-20d2t01.wav
d6b49b8f9fea00bcdeb53121521f0f7e *ph1993-02-20d2t02.wav
f205cec372f2ef10ac4e257aa4657d34 *ph1993-02-20d2t03.wav
583c1500050e523c06ba8b5447126cd5 *ph1993-02-20d2t04.wav
41eaff021476c42a670c47df5ec8e6ad *ph1993-02-20d2t05.wav
3ace7ec7c2cca0e11068a79579b2c3c3 *ph1993-02-20d2t06.wav
c4d28209e810d1012659b61ed997cc1e *ph1993-02-20d2t07.wav
8d66903511e290eab37c2be3380ba35a *ph1993-02-20d2t08.wav
f99ba722eb64fe33bda83d80e876a845 *ph1993-02-20d2t09.wav
be45e707225dbac8fc0c719edc26c177 *ph1993-02-20d2t10.wav
9a5afb7b3199fbb6275e185d4a2d8ef8 *ph1993-02-20d2t11.wav
490e357c61f807d18505af87372458a5 *ph1993-02-20d2t12.wav
ba50ba92206365e023908396e6a58bc6 *ph1993-02-20d2t13.wav
f246eacba37a89969b0bd9a7217407ae *ph1993-02-20d2t14.wav
8a4ddaeb742861d04a91e432b912e734 *ph1993-02-20d2t15.wav
05fe28812ad9cc00a670273f4178964d *ph1993-02-20d2t16.wav
deffa262af5851d6f1f917b9551fb572 *ph1993-02-20d2t17.wav
cfc7fa56987e79321f2424e360dce7ab *ph1993-02-20d3t01.wav
0ee6e8e63edeef2131aee2ff6a57f315 *ph1993-02-20d3t02.wav
029612d21eef7d59be6f7f243f014503 *ph1993-02-20d3t03.wav
7c5352d9708f14fe6b2deed8950d6d17 *ph1993-02-20d3t04.wav
66920d2f66570e3a544903d3ced3f5ec *ph1993-02-20d3t05.wav
1fd54f09db751ca6679b7a18414991a7 *ph1993-02-20d3t06.wav
155b2e71f5b4d872796eedccdb9149f3 *ph1993-02-20d3t07.wav
819a8031e6ce607ff2a13ecba5a0181a *ph1993-02-20d3t08.wav

Comments
Add Comment
Other Sources (comments)
DSBD(48k)> Tascam DA20mkII>... (1) flac16, 44kHz; SBD >... (7) SBD/AUD matrix; mixed by... (0)
Date User Comment