Browse Collections Artists Sources   Search Dates

Add Show    List Management    Help


Phish 10/22/95
Assembly Hall, University Of Illinois, Champaign, IL
Comments Add Comment    Source Collectors    Add to Collection    Add to Want List    History
Source # 89436 Other Sources
Entered by Jason Sobel
Checksums all_ffp
Disc Counts 2 / 3
Media Size
Date Circulated
Date Added
01/08/2008
01/08/2008
Source Summary Nakamichi CM300 & PZM 30D mix > Niles Audiomixer > Sony D3; PCM-R300 > M-Audio Delta 1010Lt > Wave Lab 5.0 > Traders Little Helper (flac8); Taped by Greg Holtz; Transferred by JAZ 
Source Information - Download Text | Download Zip
Phish
Assembly Hall
Champaign, IL
October 22, 1995

Taper: Greg Holtz

Source: Nakamichi CM300 & PZM 30D mix-> Niles Audiomixer-> D3

Transfer: (By JAZ) DAT Master-> PCM-R300-> Coax-> M-Audio Delta 1010Lt-> Wave Lab 5.0, BBE, Fades, L2Dither-> Traders Little Helper flac8

Set I (Disk I)
1.AC/DC Bag
2.My Mind's Got A Mind Of Its Own
3.The Sloth
4.Runaway Jim
5.Weigh
6.NICU
7.Fast Enough For You
8.It's Ice
9.Poor Heart
10.Sample In A Jar
11.Blue And Lonesome
12.Stash

Set II (Disk II)
13.Golgi Apparatus
14.Possum
15.Catapult->
16.The Curtain->
17.Tweezer->
18.Makisupa Policeman->
19.Big Black Furry Creature From Mars

(Disk III)
20.Life On Mars
21.Uncle Pen
22.Slave To The Traffic Light->
23.Cavern

Encore:
24.Sweet Adeline*
25.The Squirming Coil

Note: * = Acapella

FLAC FINGERPRINT:
Phish1995-10-22trk01.flac:6457271ae9c7ace8b1a6be1cff171b22
Phish1995-10-22trk02.flac:abc88e285a303af5c3e4df381e6aebc1
Phish1995-10-22trk03.flac:b2bec2c647f9df3a284b2145b270dc17
Phish1995-10-22trk04.flac:e970b62758269ce0cea2a870a87b74d9
Phish1995-10-22trk05.flac:00008fb12e6edc36316bb666c0fa2746
Phish1995-10-22trk06.flac:f413e6edf146945db79cd21cde5cf0e4
Phish1995-10-22trk07.flac:572936c8984e14852c8115f8ed2df40c
Phish1995-10-22trk08.flac:725c4e280f427ed09ae0ea0aa190f8ef
Phish1995-10-22trk09.flac:bb7318ce5a9c4c8818304962811f141b
Phish1995-10-22trk10.flac:30306da33b11cdc055390439372fcb77
Phish1995-10-22trk11.flac:454a6b1069ced635b6d0908d9d1578b6
Phish1995-10-22trk12.flac:dd1cbca239f221b522c15f36de4d5f12
Phish1995-10-22trk13.flac:c608cdedc230f8bf4660e8865fcd2e1a
Phish1995-10-22trk14.flac:05a313b4c73896232bfba1d4e59c3ad9
Phish1995-10-22trk15.flac:1c289ee7cadbccb7a71c88b0ba83d217
Phish1995-10-22trk16.flac:76bbd7238106ff5ca1c5428f3bc2fcc1
Phish1995-10-22trk17.flac:e50db780dd9ee84d8f3a797e2e76174d
Phish1995-10-22trk18.flac:c268b707cc82f2c53b13ef5311d9540e
Phish1995-10-22trk19.flac:b67102fb635861215e526764405f0121
Phish1995-10-22trk20.flac:423175b35ae477691ccee7913a1b8148
Phish1995-10-22trk21.flac:ba881da4fc4e868070851a4d418dba56
Phish1995-10-22trk22.flac:404a0fc99c4e787f2142ceaec15940d3
Phish1995-10-22trk23.flac:e24102b26982072bf22688f5c6a2618c
Phish1995-10-22trk24.flac:e86accedd82410889451944139fdb7dc
Phish1995-10-22trk25.flac:14f1ef09fa783c5d0419178f001b1fbd

SHNTOOL:  
    length     expanded size   cdr  WAVE problems filename
    10:07.65      107227724    ---   --   ---xx   Phish1995-10-22trk01.flac
     2:27.64       26081372    ---   --   ---xx   Phish1995-10-22trk02.flac
     3:53.06       41115356    ---   --   ---xx   Phish1995-10-22trk03.flac
     9:27.03      100025900    ---   --   ---xx   Phish1995-10-22trk04.flac
     5:29.08       58054460    ---   --   ---xx   Phish1995-10-22trk05.flac
     5:18.10       56118764    ---   --   ---xx   Phish1995-10-22trk06.flac
     6:17.73       66674540    ---   --   ---xx   Phish1995-10-22trk07.flac
     8:42.30       92151404    ---   --   ---xx   Phish1995-10-22trk08.flac
     2:16.10       24013964    ---   --   ---xx   Phish1995-10-22trk09.flac
     6:19.11       66881516    ---   --   ---xx   Phish1995-10-22trk10.flac
     3:13.72       34214588    ---   --   ---xx   Phish1995-10-22trk11.flac
    13:09.44      139283132    ---   --   ---xx   Phish1995-10-22trk12.flac
     5:09.60       54648764    ---   --   ---xx   Phish1995-10-22trk13.flac
    14:32.25      153879644    ---   --   ---xx   Phish1995-10-22trk14.flac
     1:15.43       13331180    ---   --   ---xx   Phish1995-10-22trk15.flac
     6:22.59       67523612    ---   --   ---xx   Phish1995-10-22trk16.flac
    15:15.05      161417804    ---   --   ---xx   Phish1995-10-22trk17.flac
     6:53.33       72930860    ---   --   ---xx   Phish1995-10-22trk18.flac
     6:09.52       65213948    ---   --   ---xx   Phish1995-10-22trk19.flac
     3:41.72       39153788    ---   --   ---xx   Phish1995-10-22trk20.flac
     4:02.06       42702956    ---   --   ---xx   Phish1995-10-22trk21.flac
    10:23.68      110057180    ---   --   ---xx   Phish1995-10-22trk22.flac
     6:18.65       66832124    ---   --   ---xx   Phish1995-10-22trk23.flac
     2:29.64       26434172    ---   --   ---xx   Phish1995-10-22trk24.flac
    11:07.10      117682364    ---   --   ---xx   Phish1995-10-22trk25.flac
   170:24.58     1803651116 B                     (totals for 25 files, 0.5639 overall compression ratio)
Show Checksums
all_ffp
Phish1995-10-22trk01.flac:6457271ae9c7ace8b1a6be1cff171b22
Phish1995-10-22trk02.flac:abc88e285a303af5c3e4df381e6aebc1
Phish1995-10-22trk03.flac:b2bec2c647f9df3a284b2145b270dc17
Phish1995-10-22trk04.flac:e970b62758269ce0cea2a870a87b74d9
Phish1995-10-22trk05.flac:00008fb12e6edc36316bb666c0fa2746
Phish1995-10-22trk06.flac:f413e6edf146945db79cd21cde5cf0e4
Phish1995-10-22trk07.flac:572936c8984e14852c8115f8ed2df40c
Phish1995-10-22trk08.flac:725c4e280f427ed09ae0ea0aa190f8ef
Phish1995-10-22trk09.flac:bb7318ce5a9c4c8818304962811f141b
Phish1995-10-22trk10.flac:30306da33b11cdc055390439372fcb77
Phish1995-10-22trk11.flac:454a6b1069ced635b6d0908d9d1578b6
Phish1995-10-22trk12.flac:dd1cbca239f221b522c15f36de4d5f12
Phish1995-10-22trk13.flac:c608cdedc230f8bf4660e8865fcd2e1a
Phish1995-10-22trk14.flac:05a313b4c73896232bfba1d4e59c3ad9
Phish1995-10-22trk15.flac:1c289ee7cadbccb7a71c88b0ba83d217
Phish1995-10-22trk16.flac:76bbd7238106ff5ca1c5428f3bc2fcc1
Phish1995-10-22trk17.flac:e50db780dd9ee84d8f3a797e2e76174d
Phish1995-10-22trk18.flac:c268b707cc82f2c53b13ef5311d9540e
Phish1995-10-22trk19.flac:b67102fb635861215e526764405f0121
Phish1995-10-22trk20.flac:423175b35ae477691ccee7913a1b8148
Phish1995-10-22trk21.flac:ba881da4fc4e868070851a4d418dba56
Phish1995-10-22trk22.flac:404a0fc99c4e787f2142ceaec15940d3
Phish1995-10-22trk23.flac:e24102b26982072bf22688f5c6a2618c
Phish1995-10-22trk24.flac:e86accedd82410889451944139fdb7dc
Phish1995-10-22trk25.flac:14f1ef09fa783c5d0419178f001b1fbd

Comments
Add Comment
Other Sources (comments)
B+K 4021 > Tascam... (0) Nakamichi CM300 > DAT > CDR... (0) flac16; Nak 300's >... (0)
Date User Comment