Browse Collections Artists Sources   Search Dates

Add Show    List Management    Help


Garcia 11/07/81
McDonough Arena (Georgetown U.), Washington, DC
Comments Add Comment    Source Collectors    Add to Collection    Add to Want List    History
Source # 89466 Other Sources
Entered by Joe Jupille
Checksums ffp , md5
Disc Counts 1 / 2
Media Size
Date Circulated
Date Added
01/10/2007
01/10/2008
Source Summary JGB: Taped by Tim S., Nak300 (Handheld/Stealth) > Cm > Cass > CD > EAC > Izotope Ozone > Flac. Remastered by SIRMick. 
Source Information - Download Text | Download Zip
Jerry Garcia Band
McDonough Arena (Georgetown University),
Washington, DC  
11-7-1981


Source: Nak 300 (Stealth/Handheld) > cm > cass > cdr
Taped by Tim S.
Transfer: cdr > eac > wav > flac


Disc 1
Set 1  

01   Sugaree  
02   Catfish John  
03   That's What Love Will Make You Do  
04   Sitting In Limbo  
05   Let It Rock  
06   Midnight Moonlight  


Disc 2
Set 2  

01   I Second That Emotion  
02   Russian Lullaby  
03   Valerie  
04   Don't Let Go  
05   The Night They Drove Old Dixie Down >
06   Dear Prudence >  
07   Tangled Up In Blue//

notes:

-a number of small dropouts have been repaired
- most tracks have tape pauses after them, these have been crossfaded
- there is a brief patch of static in d2t03 and d2t04, and a couple in d2t05


comments:

- same recording as shnid 16506 however, these discs were never converted to SHN.  Whilst 16506
  does not list any mics, these CD's were labeled Nak300 handlheld/stealth Tim S.



Discs provided by and waves extracted by biodtl

edited, and mastered with iZotope Ozone
SIRMick
January 2008



shntool output:

    length     expanded size   cdr  WAVE problems filename
    10:19.64      109342172    ---   --   ---xx   jgb1981-11-07d1t01.flac
     9:39.41      102232076    ---   --   ---xx   jgb1981-11-07d1t02.flac
    10:30.39      111223772    ---   --   ---xx   jgb1981-11-07d1t03.flac
    10:30.50      111249644    ---   --   ---xx   jgb1981-11-07d1t04.flac
     6:11.47       65554988    ---   --   ---xx   jgb1981-11-07d1t05.flac
     8:00.08       84690860    ---   --   ---xx   jgb1981-11-07d1t06.flac
    10:33.18      111703580    ---   --   ---xx   jgb1981-11-07d2t01.flac
    12:54.58      136670060    ---   --   ---xx   jgb1981-11-07d2t02.flac
     6:22.40       67478924    ---   --   ---xx   jgb1981-11-07d2t03.flac
    12:30.19      132344732    ---   --   ---xx   jgb1981-11-07d2t04.flac
     8:20.65       88352924    ---   --   ---xx   jgb1981-11-07d2t05.flac
    12:12.33      129202460    ---   --   ---xx   jgb1981-11-07d2t06.flac
     3:10.70       33680684    ---   --   ---xx   jgb1981-11-07d2t07.flac
   121:17.27     1283726876 B                     (totals for 13 files, 0.5856 overall compression ratio)
Show Checksums
ffp
jgb1981-11-07d1t01.flac:514014d07c1fe7f71535d8a1065c4b27
jgb1981-11-07d1t02.flac:13047b08c004272df47b38ee45fbc75b
jgb1981-11-07d1t03.flac:73824483c604c623ef1eae80bcd8c76c
jgb1981-11-07d1t04.flac:a97f02e029fdb3dadea418ed6e37aadb
jgb1981-11-07d1t05.flac:ce376387648dd6d98137c0b7dc7b0715
jgb1981-11-07d1t06.flac:b56b710ced94b9428ab4808a6e688572
jgb1981-11-07d2t01.flac:7c6c90e5aefcd080e67d0ba604fc55dc
jgb1981-11-07d2t02.flac:da4bb1922eb7d712b3bc824c1d54c665
jgb1981-11-07d2t03.flac:20ba931644b3ea1b0559ae5ded0a9b12
jgb1981-11-07d2t04.flac:b7f7bb754265128f0a30ef3060185094
jgb1981-11-07d2t05.flac:28ded74d460fec4d8b7dfb692e970a77
jgb1981-11-07d2t06.flac:3a7c3e1460e26dde5e64ea9d1facacbd
jgb1981-11-07d2t07.flac:d3274d013cf14a544a3bf142a130cee8
md5
1d67ae298ca9e127e731ff34fa0b1e3c *jgb1981-11-07d1t01.flac
65a2760a7a7ef00c0cf9d9b0a0b72dac *jgb1981-11-07d1t02.flac
4fed3d94a1bf0d99a1cc03751fcd76be *jgb1981-11-07d1t03.flac
42f5489559179787ebc7c6388f8b28b7 *jgb1981-11-07d1t04.flac
e42581f9976b0dd990c5eea1649dc426 *jgb1981-11-07d1t05.flac
fc5eedd846f3cb4127e353a901e16a9e *jgb1981-11-07d1t06.flac
7c95d215e5fbacd45b2e339ccdf9fe04 *jgb1981-11-07d2t01.flac
da0656a1a5b9840f3942cdfdf6406a98 *jgb1981-11-07d2t02.flac
f589e2066d7388f72b96d254a5b49802 *jgb1981-11-07d2t03.flac
e1710946352dd8a4978c60320bd122d7 *jgb1981-11-07d2t04.flac
be79f0d8982224240b348bfaa79b2012 *jgb1981-11-07d2t05.flac
9589e65384cf220b03ec44f24fdf343f *jgb1981-11-07d2t06.flac
4afeccc32ad655d829f73746fcbea4b8 *jgb1981-11-07d2t07.flac

Comments
Add Comment
Other Sources (comments)
Jerry Garcia Band: MA? > 1... (2) Jerry Garcia Band, set II... (0)
Date User Comment