Browse Collections Artists Sources   Search Dates

Add Show    List Management    Help


Grateful Dead 12/27/83
San Francisco Civic Auditorium, San Francisco, CA
Comments Add Comment    Source Collectors    Add to Collection    Add to Want List    History
Source # 89483 Other Sources
Entered by Gary Field
Checksums ffp , flac-md5
Disc Counts 2 / 3
Media Size
Date Circulated
Date Added
01/11/2008
01/12/2008
Source Summary flac16; AUD: Sennheiser MD-441's > patched thru 2 tapedecks > Marantz PMD-340 > Sony UCX-S 90's, Dolby on. Mics on 8-foot stand, just behind the Sbd. Transfer: MAC > Nakamichi DR-8 (Dolby B on) > Audiophile 2496 analog-in > Soundforge > CD-Wave > TLH > FLAC. Taped and tranferred by Andrew F. 
  Archive
Source Information - Download Text | Download Zip
GRATEFUL DEAD
Civic Auditorium
San Francisco CA
12-27-1983

Disc One (62:35)

01 Cold Rain & Snow
02 C.C. Rider
03 They Love Eachother
04 Beat it on Down the Line
05 Althea >
06 intro jam >
07 Cassidy
08 West L.A. Fadeaway
09 Hell in a Bucket >
10 Might as Well
-- set break --

Disc Two (38:03)

01 Scarlet Begonias >
02 Fire on the Mountain >
03 Samson & Delilah

Disc Three (66:40)

01 He's Gone >
02 Drums >
03 Space >
04 Throwing Stones >
05 Black Peter >
06 Sugar Magnolia
-- encore --
07 U.S. Blues

AUD: Sennheiser MD-441's > patched thru 2 tapedecks > Marantz PMD-340 >
Sony UCX-S 90's, Dolby on. Mics on 8-foot stand, just behind the Sbd.

Transfer: MAC > Nakamichi DR-8 (Dolby B on) > Audiophile 2496 analog-in >
Soundforge > CD-Wave > TLH > FLAC. Taped and tranferred by Andrew F.

Notes:
- This is a new transfer and upgrade of the recording that is ShnID-17419.
- PA mix problems during start of concert (kick drums too loud).
- Drums/Space made seamless with patches from ShnID-17961, as follows:
- Drums 0:09 > 0:13, Space 0:05 > 0:13, 1:02 > 1:09, and 4:18 > 4:29.
- Soundforge used for fades, patching, levels adjust, and repair dropouts.
- TLH used for SBE-OK, FLAC compression, and checksums.

md5

0737957bc65f33ec2dbc786d467f1308 *gd1983-12-27d1t01.flac
944121baa5e0ee617b6690088de306f8 *gd1983-12-27d1t02.flac
8dd25cdec2709493842dca459700c3fe *gd1983-12-27d1t03.flac
a1e1cb8c3a39bc33e727ef94a3df5d98 *gd1983-12-27d1t04.flac
1650eaaf6b8c326df6119228e67af0e2 *gd1983-12-27d1t05.flac
2ee4067013efa00177c20a4cd44ba125 *gd1983-12-27d1t06.flac
fd1c07e88c9aecc08ec2829e189584af *gd1983-12-27d1t07.flac
c5d41cb87721537177320ff0233351e3 *gd1983-12-27d1t08.flac
3a35de57489219e8522c6a46ae954f41 *gd1983-12-27d1t09.flac
e48007927ca78b37f959d6b987c2ed34 *gd1983-12-27d1t10.flac
0d828b07505a284d73e15b51102c3c6b *gd1983-12-27d2t01.flac
7fa3a76e312cce4eb5a8f72958416f22 *gd1983-12-27d2t02.flac
932d129f309a87ca3971f3016718bc63 *gd1983-12-27d2t03.flac
f463882843913c7dbc7b621d4ad39771 *gd1983-12-27d3t01.flac
ede4d54afb51377ae4147a9203fdc834 *gd1983-12-27d3t02.flac
30dca073c85add02af52381699c40ae3 *gd1983-12-27d3t03.flac
0d251703e8ac3a6011c3bc06f5d9f0c1 *gd1983-12-27d3t04.flac
f7c6c92a33bc0a82054c9af0e5720822 *gd1983-12-27d3t05.flac
3492562a464b30af99eeea572970e062 *gd1983-12-27d3t06.flac
861ade5f66dd888757a2706ee84215b8 *gd1983-12-27d3t07.flac

ffp

gd1983-12-27d1t01.flac:34b9f083a9d1cfc3b6406f74977c536d
gd1983-12-27d1t02.flac:1904829dab5072f5f466057644c32c6d
gd1983-12-27d1t03.flac:c664712bc3d94742cb8efb5452fcc90a
gd1983-12-27d1t04.flac:7b6093a83df4d8e647c150144637937a
gd1983-12-27d1t05.flac:28ee9da36195e54cd097822327a067cb
gd1983-12-27d1t06.flac:fe22467e48b82cfffc9501ea02a4c5e1
gd1983-12-27d1t07.flac:918711cde65b7b431614cf465d38b059
gd1983-12-27d1t08.flac:f7a86968335209d2f8be8795eb88c258
gd1983-12-27d1t09.flac:5ce4b91ca0d13660aacd029562630991
gd1983-12-27d1t10.flac:2e73a05bc687e09eeb445aed1ee29910
gd1983-12-27d2t01.flac:2fb52236d64f2be21c948d6469d5ded3
gd1983-12-27d2t02.flac:759c7ab4eafb90e01d46acaf2a6c3a88
gd1983-12-27d2t03.flac:7a7e8531ee06c302c7934ba5f889ccfd
gd1983-12-27d3t01.flac:e3055954cd10ab3e05ddce306259bfb5
gd1983-12-27d3t02.flac:b6c44c18e816ddf5897f9686bb6740f9
gd1983-12-27d3t03.flac:d52dbe3b99a13dd833da2d30c9814d1d
gd1983-12-27d3t04.flac:76ed37bdab439abb5dc542f8b32eed2b
gd1983-12-27d3t05.flac:cf65401770fc25e8be9410e27c55acab
gd1983-12-27d3t06.flac:619ad1d4ffbef279fed53383280ad71f
gd1983-12-27d3t07.flac:7bd3c0bc54b1d13643cb8cb76c922ae3

shntool

    length     expanded size   cdr  WAVE problems filename
     7:46.50       82320044    ---   --   ---xx   gd1983-12-27d1t01.flac
     7:20.60       77757164    ---   --   ---xx   gd1983-12-27d1t02.flac
     8:25.58       89218460    ---   --   ---xx   gd1983-12-27d1t03.flac
     4:13.14       44662172    ---   --   ---xx   gd1983-12-27d1t04.flac
     8:01.22       84900188    ---   --   ---xx   gd1983-12-27d1t05.flac
     1:19.02       13940348    ---   --   ---xx   gd1983-12-27d1t06.flac
     5:27.07       57699308    ---   --   ---xx   gd1983-12-27d1t07.flac
     9:40.02      102316748    ---   --   ---xx   gd1983-12-27d1t08.flac
     5:50.34       61820012    ---   --   ---xx   gd1983-12-27d1t09.flac
     4:31.00       47804444    ---   --   ---xx   gd1983-12-27d1t10.flac
    14:24.28      152475500    ---   --   ---xx   gd1983-12-27d2t01.flac
    15:35.48      165046940    ---   --   ---xx   gd1983-12-27d2t02.flac
     8:03.01       85203596    ---   --   ---xx   gd1983-12-27d2t03.flac
    12:29.63      132271820    ---   --   ---xx   gd1983-12-27d3t01.flac
     9:34.46      101361836    ---   --   ---xx   gd1983-12-27d3t02.flac
    12:31.04      132485852    ---   --   ---xx   gd1983-12-27d3t03.flac
     9:02.27       95672348    ---   --   ---xx   gd1983-12-27d3t04.flac
     7:04.15       74828924    ---   --   ---xx   gd1983-12-27d3t05.flac
    10:11.45      107886284    ---   --   ---xx   gd1983-12-27d3t06.flac
     5:47.12       61239068    ---   --   ---xx   gd1983-12-27d3t07.flac
   167:19.13     1770911056 B                     (totals for 20 files, 0.5872 overall compression ratio)

There were no sector boundary errors.
Show Checksums
ffp
gd1983-12-27d1t01.flac:34b9f083a9d1cfc3b6406f74977c536d
gd1983-12-27d1t02.flac:1904829dab5072f5f466057644c32c6d
gd1983-12-27d1t03.flac:c664712bc3d94742cb8efb5452fcc90a
gd1983-12-27d1t04.flac:7b6093a83df4d8e647c150144637937a
gd1983-12-27d1t05.flac:28ee9da36195e54cd097822327a067cb
gd1983-12-27d1t06.flac:fe22467e48b82cfffc9501ea02a4c5e1
gd1983-12-27d1t07.flac:918711cde65b7b431614cf465d38b059
gd1983-12-27d1t08.flac:f7a86968335209d2f8be8795eb88c258
gd1983-12-27d1t09.flac:5ce4b91ca0d13660aacd029562630991
gd1983-12-27d1t10.flac:2e73a05bc687e09eeb445aed1ee29910
gd1983-12-27d2t01.flac:2fb52236d64f2be21c948d6469d5ded3
gd1983-12-27d2t02.flac:759c7ab4eafb90e01d46acaf2a6c3a88
gd1983-12-27d2t03.flac:7a7e8531ee06c302c7934ba5f889ccfd
gd1983-12-27d3t01.flac:e3055954cd10ab3e05ddce306259bfb5
gd1983-12-27d3t02.flac:b6c44c18e816ddf5897f9686bb6740f9
gd1983-12-27d3t03.flac:d52dbe3b99a13dd833da2d30c9814d1d
gd1983-12-27d3t04.flac:76ed37bdab439abb5dc542f8b32eed2b
gd1983-12-27d3t05.flac:cf65401770fc25e8be9410e27c55acab
gd1983-12-27d3t06.flac:619ad1d4ffbef279fed53383280ad71f
gd1983-12-27d3t07.flac:7bd3c0bc54b1d13643cb8cb76c922ae3
flac-md5
0737957bc65f33ec2dbc786d467f1308 *gd1983-12-27d1t01.flac
944121baa5e0ee617b6690088de306f8 *gd1983-12-27d1t02.flac
8dd25cdec2709493842dca459700c3fe *gd1983-12-27d1t03.flac
a1e1cb8c3a39bc33e727ef94a3df5d98 *gd1983-12-27d1t04.flac
1650eaaf6b8c326df6119228e67af0e2 *gd1983-12-27d1t05.flac
2ee4067013efa00177c20a4cd44ba125 *gd1983-12-27d1t06.flac
fd1c07e88c9aecc08ec2829e189584af *gd1983-12-27d1t07.flac
c5d41cb87721537177320ff0233351e3 *gd1983-12-27d1t08.flac
3a35de57489219e8522c6a46ae954f41 *gd1983-12-27d1t09.flac
e48007927ca78b37f959d6b987c2ed34 *gd1983-12-27d1t10.flac
0d828b07505a284d73e15b51102c3c6b *gd1983-12-27d2t01.flac
7fa3a76e312cce4eb5a8f72958416f22 *gd1983-12-27d2t02.flac
932d129f309a87ca3971f3016718bc63 *gd1983-12-27d2t03.flac
f463882843913c7dbc7b621d4ad39771 *gd1983-12-27d3t01.flac
ede4d54afb51377ae4147a9203fdc834 *gd1983-12-27d3t02.flac
30dca073c85add02af52381699c40ae3 *gd1983-12-27d3t03.flac
0d251703e8ac3a6011c3bc06f5d9f0c1 *gd1983-12-27d3t04.flac
f7c6c92a33bc0a82054c9af0e5720822 *gd1983-12-27d3t05.flac
3492562a464b30af99eeea572970e062 *gd1983-12-27d3t06.flac
861ade5f66dd888757a2706ee84215b8 *gd1983-12-27d3t07.flac

Comments
Add Comment
Other Sources (comments)
Aud>?>CD>EAC>SHN via Steve... (1) (FOB) Senn 441>PCM>Dat... (0) SBD > MC > C > DAT > CD >... (3) SBD > MC > C > DAT > CD >... (0) flac16; Recording... (2) flac16; Source:... (0) flac16; Recording... (0) flac16: Recorded by... (0) flac16; Matrix 2... (0) DTS-Audio-CD 5.1... (0) flac16; Master... (0) flac24; Master... (0) flac16; source: aud... (0) flac24; source: aud... (0)
Date User Comment