Browse Collections Artists Sources   Search Dates

Add Show    List Management    Help


Phish 10/22/96
Madison Square Garden, New York, NY
Comments Add Comment    Source Collectors    Add to Collection    Add to Want List    History
Source # 89485 Other Sources
Entered by Jason Sobel
Checksums all_ffp , all_wav_md5
Disc Counts 2 / 3
Media Size
Date Circulated
Date Added
01/12/2008
01/12/2008
Source Summary Schoeps mk21 > kc5 > cmc5 > Sonosax SX-M2 > Sony D10 Pro II (@ 48 kHz); Tascam DA-20MKII > Tascam HD-P2 > WaveLab 5.01b (fades) > r8brain v1.9 (48 to 44.1 kHz) > CD Wave v1.96.1 > FLAC v1.2.1 (Level 8); Taped by Eliot Byron; Transferred by Jason Sobel 
Source Information - Download Text | Download Zip
Phish
October 22, 1996
Madison Square Garden
New York, NY

source:
Schoeps mk21 > kc5 > cmc5 > Sonosax SX-M2 > Sony D10 Pro II (@ 48 kHz)

transfer:
Tascam DA-20MKII > Tascam HD-P2 > CF card > usb 2.0 > pc > WaveLab 5.01b (fades) > r8brain v1.9 (resample to 44.1 kHz) > CD Wave v1.96.1 > FLAC v1.2.1 (Level 8)

FLAC tags added with metaflac v1.2.1

recorded by Eliot Byron
transferred by Jason Sobel ([email protected])
seeded January 12, 2008

notes:
The original 48 kHz .wav files from the DAT transfer have been archived, and are available upon request.
Big thanks to Eliot for letting me borrow the master DAT!

Disc 1 - [78:19]
Set I
01 - [01:10] - intro
02 - [06:18] - The Curtain >
03 - [08:59] - Runaway Jim
04 - [03:43] - Bouncing Around the Room
05 - [08:57] - It's Ice
06 - [03:20] - Talk
07 - [12:14] - Split Open and Melt
08 - [03:49] - Sparkle
09 - [07:59] - Free
10 - [21:50] - You Enjoy Myself

Disc 2 - [49:08]
Set II
01 - [05:39] - 2001 >
02 - [12:43] - Down with Disease
03 - [07:24] - Taste
04 - [07:56] - The Mango Song
05 - [02:34] - Lawn Boy
06 - [12:47] - Scent of a Mule

Disc 3 - [38:01]
Set II continued
01 - [09:35] - Mike's Song ->
02 - [00:58] - Swept Away >
03 - [01:58] - Steep
04 - [08:41] - Weekapaug Groove *
05 - [04:25] - encore break
06 - [12:23] - All Along the Watchtower **

* included circus dancers and Mimi Fishman dancing around on stage towards the end

** with Buddy Miles on drums and lead vocals, Merl Saunders on keys, and Fishman on Trey's percussion rack.  The circus dancers also appeared for the encore.

------------------------------------------------------------------------------------------

SHNtool output:

    length     expanded size   cdr  WAVE problems filename
     1:09.60       12312764    ---   --   ---xx   ph1996-10-22d1t01.flac
     6:17.73       66674540    ---   --   ---xx   ph1996-10-22d1t02.flac
     8:59.22       95131388    ---   --   ---xx   ph1996-10-22d1t03.flac
     3:43.06       39351356    ---   --   ---xx   ph1996-10-22d1t04.flac
     8:57.02       94731548    ---   --   ---xx   ph1996-10-22d1t05.flac
     3:19.57       35237708    ---   --   ---xx   ph1996-10-22d1t06.flac
    12:14.19      129522332    ---   --   ---xx   ph1996-10-22d1t07.flac
     3:48.63       40367420    ---   --   ---xx   ph1996-10-22d1t08.flac
     7:59.12       84523868    ---   --   ---xx   ph1996-10-22d1t09.flac
    21:49.61      231051116    ---   --   ---xx   ph1996-10-22d1t10.flac
     5:39.13       59830220    ---   --   ---xx   ph1996-10-22d2t01.flac
    12:48.43      135576380    ---   --   ---xx   ph1996-10-22d2t02.flac
     7:23.60       78286364    ---   --   ---xx   ph1996-10-22d2t03.flac
     7:56.22       84018188    ---   --   ---xx   ph1996-10-22d2t04.flac
     2:33.40       27083324    ---   --   ---xx   ph1996-10-22d2t05.flac
    12:46.47      135232988    ---   --   ---xx   ph1996-10-22d2t06.flac
     9:34.37      101340668    ---   --   ---xx   ph1996-10-22d3t01.flac
     0:58.32       10306508    ---   --   ---xx   ph1996-10-22d3t02.flac
     1:58.34       20895212    ---   --   ---xx   ph1996-10-22d3t03.flac
     8:41.11       91930316    ---   --   ---xx   ph1996-10-22d3t04.flac
     4:24.74       46743692    ---   --   ---xx   ph1996-10-22d3t05.flac
    12:23.37      131152268    ---   --   ---xx   ph1996-10-22d3t06.flac
   165:28.00     1751300168 B                     (totals for 22 files, 0.5571 overall compression ratio)
Show Checksums
all_ffp
ph1996-10-22d1t01.flac:0b236a32370f11fd70c352bc437b3e8d
ph1996-10-22d1t02.flac:30e33affcb187db9b409ce90035bb544
ph1996-10-22d1t03.flac:ec132e5f3ab3a756e7986cbd2bce28df
ph1996-10-22d1t04.flac:b93c63a7b065a5914d946f8b91432dc7
ph1996-10-22d1t05.flac:484c150b8ac69abbb974cd53016b5b4f
ph1996-10-22d1t06.flac:523655258ea1ca5689e4fb179cebcffb
ph1996-10-22d1t07.flac:bffafe3beadd4a3367b596e42ab98681
ph1996-10-22d1t08.flac:42fbe220e78f605b3053d58b3e903314
ph1996-10-22d1t09.flac:e4ca7e53d949f130ce0683069062ec1e
ph1996-10-22d1t10.flac:d0d570647c00285304e1e4081a56f3e0
ph1996-10-22d2t01.flac:0bdb1af1249a9d84dbad1d825ddbef40
ph1996-10-22d2t02.flac:b0bcf717ab117f57b6f09ebf473061cd
ph1996-10-22d2t03.flac:f63c3af3c8590ebb0e10bbd61e19280c
ph1996-10-22d2t04.flac:e65bebf00c2daaae9ae634947a44cd5c
ph1996-10-22d2t05.flac:24ca1aef212eeffd5827562d60f1a5eb
ph1996-10-22d2t06.flac:618806d2ceda835d6d55a8cc6f543a70
ph1996-10-22d3t01.flac:41a71cd3594b7a6c7222571cda3f576d
ph1996-10-22d3t02.flac:c47760b1bb8822d8f982e1a374ab3b3b
ph1996-10-22d3t03.flac:048be920707803e7c51504396d6df363
ph1996-10-22d3t04.flac:03554922156426733a9a153637a48e6f
ph1996-10-22d3t05.flac:eeafe0f696de0ccddacdfd8be7f092d0
ph1996-10-22d3t06.flac:0a94dfa5d543faf615c54a249784feb1
all_wav_md5
a55714c1b4754d6b5fe616306f648ed5 *ph1996-10-22d1t01.wav
df6ecbd380b980678c009f520b6eaab6 *ph1996-10-22d1t02.wav
d0abdb74717a133ba097433e9cdbbb26 *ph1996-10-22d1t03.wav
033ec465722363ec587d4af4a7d5cd88 *ph1996-10-22d1t04.wav
a9ee1a555ad2983e47ecd8b55a2ecc34 *ph1996-10-22d1t05.wav
da09d622edc8ca6618b779140fb202ad *ph1996-10-22d1t06.wav
cb086a47ed4a8c626af2ac9ea7c532f7 *ph1996-10-22d1t07.wav
75679be7c254ef3ee11a0d17059a6855 *ph1996-10-22d1t08.wav
cfa67fd4edb863744e8be5ee0d8b16a2 *ph1996-10-22d1t09.wav
dbd21b4853f54cd235f62209756a20db *ph1996-10-22d1t10.wav
4d30997704823d021da80d5aea15344d *ph1996-10-22d2t01.wav
4a2fd93a920b88317f37ffa1c2590174 *ph1996-10-22d2t02.wav
35b846ffaa610ce7b096c7ced122fde1 *ph1996-10-22d2t03.wav
ab25274b1753830de4cffb186f7d31ec *ph1996-10-22d2t04.wav
9f03a24b6e589692e0d69f011295c1ba *ph1996-10-22d2t05.wav
595f1e67576067785a117afe013c9eb2 *ph1996-10-22d2t06.wav
1b24f1a94301c7b837a535701328df19 *ph1996-10-22d3t01.wav
de0e92cd3bee1c0d4ca8d06b4affd1a4 *ph1996-10-22d3t02.wav
3628c61430a0783393eb039ccb7f9ead *ph1996-10-22d3t03.wav
ffb3b42950a8f365d089ad7488b6de35 *ph1996-10-22d3t04.wav
52b54257b3bfff5ed4be32979f7be764 *ph1996-10-22d3t05.wav
4369cd578577c178bb536c65b7e122ee *ph1996-10-22d3t06.wav

Comments
Add Comment
Other Sources (comments)
B&K 4021's, Front & Center... (0) B+K 4021 (ORTF) > EAA PSP-2... (2) flac16, 44kHz;... (0) (FOB) Neumann TLM-170R's... (0) (FOB) Neumann TLM-170R's... (0) flac16, 44kHz;... (0) flac16, 48kHz;... (0)
Date User Comment