Browse Collections Artists Sources   Search Dates

Add Show    List Management    Help


Phish 02/21/93
Roxy Theater, Atlanta, GA
Comments Add Comment    Source Collectors    Add to Collection    Add to Want List    History
Source # 89487 Other Sources
Entered by Jason Sobel
Checksums all_ffp , all_wav_md5
Disc Counts 1 / 2
Media Size
Date Circulated
Date Added
01/12/2008
01/12/2008
Source Summary AKG 451 > Sony D3 (@ 48 kHz); Tascam DA-20MKII > Tascam HD-P2 > WaveLab 5.01b (de-emphasis, fades, 48 to 44.1 kHz) > CD Wave v1.96.1 > FLAC v1.2.1 (Level 8); Taped by Mike Stoll (?); Transferred by Jason Sobel 
Source Information - Download Text | Download Zip
Phish
February 21, 1993
Roxy Theatre
Atlanta, GA

source:
AKG 451 > Sony D3 (@ 48 kHz)
(recorded at soundboard)

transfer:
Tascam DA-20MKII > Tascam HD-P2 > CF card > usb 2.0 > pc > WaveLab 5.01b (de-emphasis, fades, resample to 44.1 kHz) > CD Wave v1.96.1 > FLAC v1.2.1 (Level 8)

FLAC tags added with metaflac v1.2.1

recorded by Mike Stoll (?)
transferred by Jason Sobel ([email protected])
seeded January 12, 2008

notes:
The original DAT recording was made with pre-emphasis.
The Waves Q10 Paragraphic EQ (v5.0) plug-in was used to de-emphasize the recording.
The original 48 kHz .wav files from the DAT transfer have been archived, and are available upon request.
Big thanks to Eliot Byron for letting me borrow his DATs!

Disc 1 - [61:09]
Set I
01 - [05:44] - Suzy Greenberg
02 - [02:58] - Buried Alive
03 - [07:15] - Punch You in the Eye
04 - [04:04] - Uncle Pen
05 - [03:35] - Horn >
06 - [07:25] - Chalk Dust Torture
07 - [10:45] - Esther >
08 - [03:16] - Dinner and a Movie >
09 - [03:34] - Bouncing Around the Room >
10 - [12:36] - Run Like an Antelope

Disc 2 - [78:15]
Set II
01 - [00:39] - intro
02 - [03:52] - Axilla
03 - [06:17] - The Curtain >
04 - [10:30] - Stash ->
05 - [00:50] - Manteca ->
06 - [00:53] - Stash >
07 - [11:05] - The Lizards
08 - [07:03] - Bathtub Gin ->
09 - [02:28] - HYHU >
10 - [02:44] - Cracklin' Rosie >
11 - [03:36] - HYHU
12 - [08:42] - The Squirming Coil
13 - [05:06] - Big Black Furry Creature from Mars
14 - [01:42] - encore break
15 - [03:37] - Sweet Adeline
16 - [03:29] - Good Times Bad Times * ->
17 - [02:19] - Paul and Silas * ->
18 - [03:23] - Pig in a Pen *

* with the Reverend Jeff Mosier on banjo

Some pretty big level adjustments in the beginning of "Suzy Greenberg".

patch notes:
There was a drop-out towards the start of "Esther".
The missing portions was spliced in with the following source:

AKG 460b's > Oade > Panasonic 255
http://db.etree.org/shn/510

The AKG patch source was used during the following portion:
[00:28] to [01:33]

--------------------------------------------------------------------------------

SHNtool output:

    length     expanded size   cdr  WAVE problems filename
     5:43.44       60608732    ---   --   ---xx   ph1993-02-21d1t01.flac
     2:57.39       31314572    ---   --   ---xx   ph1993-02-21d1t02.flac
     7:14.48       76670540    ---   --   ---xx   ph1993-02-21d1t03.flac
     4:04.27       43105148    ---   --   ---xx   ph1993-02-21d1t04.flac
     3:34.50       37867244    ---   --   ---xx   ph1993-02-21d1t05.flac
     7:24.46       78429836    ---   --   ---xx   ph1993-02-21d1t06.flac
    10:44.43      113702780    ---   --   ---xx   ph1993-02-21d1t07.flac
     3:15.49       34513292    ---   --   ---xx   ph1993-02-21d1t08.flac
     3:34.10       37773164    ---   --   ---xx   ph1993-02-21d1t09.flac
    12:35.40      133276124    ---   --   ---xx   ph1993-02-21d1t10.flac
     0:39.23        6933740    ---   --   ---xx   ph1993-02-21d2t01.flac
     3:51.42       40847228    ---   --   ---xx   ph1993-02-21d2t02.flac
     6:16.64       66476972    ---   --   ---xx   ph1993-02-21d2t03.flac
    10:30.08      111150860    ---   --   ---xx   ph1993-02-21d2t04.flac
     0:50.24        8876492    ---   --   ---xx   ph1993-02-21d2t05.flac
     0:52.48        9285740    ---   --   ---xx   ph1993-02-21d2t06.flac
    11:05.06      117320156    ---   --   ---xx   ph1993-02-21d2t07.flac
     7:03.00       74617244    ---   --   ---xx   ph1993-02-21d2t08.flac
     2:27.62       26076668    ---   --   ---xx   ph1993-02-21d2t09.flac
     2:44.15       28964924    ---   --   ---xx   ph1993-02-21d2t10.flac
     3:35.38       38015420    ---   --   ---xx   ph1993-02-21d2t11.flac
     8:42.33       92158460    ---   --   ---xx   ph1993-02-21d2t12.flac
     5:05.60       53943164    ---   --   ---xx   ph1993-02-21d2t13.flac
     1:41.68       17976380    ---   --   ---xx   ph1993-02-21d2t14.flac
     3:37.20       38325884    ---   --   ---xx   ph1993-02-21d2t15.flac
     3:29.13       36898220    ---   --   ---xx   ph1993-02-21d2t16.flac
     2:18.50       24460844    ---   --   ---xx   ph1993-02-21d2t17.flac
     3:23.09       35830412    ---   --   ---xx   ph1993-02-21d2t18.flac
   139:24.04     1475420240 B                     (totals for 28 files, 0.4771 overall compression ratio)
Show Checksums
all_ffp
ph1993-02-21d1t01.flac:453622c0365690ca5ef78c4c9abe07a2
ph1993-02-21d1t02.flac:d5cb1e12086a18550e018016a7d8767c
ph1993-02-21d1t03.flac:d15b4295dcf546de3c8acc4d4bc586fe
ph1993-02-21d1t04.flac:120dfcb6ea195d78ee2e7fe06bcb2e76
ph1993-02-21d1t05.flac:08a3a2218cad9d23c5752c5e793fec93
ph1993-02-21d1t06.flac:c51ad2739cd5362e3e27746ca3160590
ph1993-02-21d1t07.flac:c04b02d76848fc38247820860c7e1133
ph1993-02-21d1t08.flac:4e482071f0ac017c7285776fa586795e
ph1993-02-21d1t09.flac:b49d9a744af0ca26a6a3608e588f2518
ph1993-02-21d1t10.flac:398d0ea5d00f9f6e6dd6eba0218fe6f0
ph1993-02-21d2t01.flac:a75b6799fbd979fa77dbcc0a15b957df
ph1993-02-21d2t02.flac:5656a50fe939f82f6fd739960e2ff5c7
ph1993-02-21d2t03.flac:e27967e00608027213988d1b1f50b828
ph1993-02-21d2t04.flac:bece8a5f734b6e9e2eab96af4aa72c1c
ph1993-02-21d2t05.flac:9364c180d026f09014fdcec9f64d81c7
ph1993-02-21d2t06.flac:09f5520dbc6c8ecfd5535150e606f612
ph1993-02-21d2t07.flac:5a680d4e24ce48f86fc8605a69e64d40
ph1993-02-21d2t08.flac:aa03e8944edcbda6a6f24cc239cd9dbc
ph1993-02-21d2t09.flac:e696922b20505b9a72acfcda41b4822a
ph1993-02-21d2t10.flac:367e13de43fba188f50bc04feae2a841
ph1993-02-21d2t11.flac:035a2279fa322613190df6bbcb7d697d
ph1993-02-21d2t12.flac:efdf8d78a0338fc23a15c1e483b2cdba
ph1993-02-21d2t13.flac:aa6e41dcf4b10688f9d46b9cd080e466
ph1993-02-21d2t14.flac:19dd3c2b12a81b3b095a4f2cc5b9572a
ph1993-02-21d2t15.flac:4f51bee901113d3963f7eddbdf7476a6
ph1993-02-21d2t16.flac:fd9f87edbff50e41115630657329b4fa
ph1993-02-21d2t17.flac:52018364441c77eabaac985b34533edf
ph1993-02-21d2t18.flac:a3d45dd27a7b003ab3d0403b0cf65b31
all_wav_md5
e1b65e5fc9790fbedb8135f6582f067f *ph1993-02-21d1t01.wav
60468be41842a71843ea0e4bf6366afd *ph1993-02-21d1t02.wav
01311b2e02c740e2db6138f4223ef509 *ph1993-02-21d1t03.wav
8b0e4789a733f9e9ff6df0eacc0a3a3b *ph1993-02-21d1t04.wav
06be0bed65c005a985881916e83a3a0d *ph1993-02-21d1t05.wav
3b4afe3d9b06d02d999dc7099f2cf1d1 *ph1993-02-21d1t06.wav
3c7cb4bf663b78846eee41e1ebb55175 *ph1993-02-21d1t07.wav
20f613e55129d3a2e434a6b5ce3e58c0 *ph1993-02-21d1t08.wav
7e041cda676497c081ce9857201da835 *ph1993-02-21d1t09.wav
c2de0f952504d1947509815e70b270c3 *ph1993-02-21d1t10.wav
8de0d49bd2c8ca1f2b506439d9e52216 *ph1993-02-21d2t01.wav
38363a60ca2380dafa8a166e3d0adaf9 *ph1993-02-21d2t02.wav
589876988eb17feb8a300aa6bea5294d *ph1993-02-21d2t03.wav
6a7e9d3072abb70ec10ff3de46b2a244 *ph1993-02-21d2t04.wav
0182f8c4201763a244b1918869dd7a75 *ph1993-02-21d2t05.wav
525dfe0429ba7a0cabea1806b7175505 *ph1993-02-21d2t06.wav
96cae01107ef971a325c5207f592ead8 *ph1993-02-21d2t07.wav
99443237987905ad1f85c5a980c41839 *ph1993-02-21d2t08.wav
28800b6eb95a2a2549e0d4986cfa1317 *ph1993-02-21d2t09.wav
fcacea107c5fc96422cb4f438c93a866 *ph1993-02-21d2t10.wav
02950d7c6e0aff31918d29202359ba33 *ph1993-02-21d2t11.wav
089a997d989ffa67efde4995504b1b17 *ph1993-02-21d2t12.wav
94d5cdf13da68d2df6feede2790b83ac *ph1993-02-21d2t13.wav
84b78214994d9ca5ef8ddf322dad0d81 *ph1993-02-21d2t14.wav
fd12189a529ce00b3b4e9d31f2069a25 *ph1993-02-21d2t15.wav
32c09b4fe0796b9bae9ddf75483f9712 *ph1993-02-21d2t16.wav
acf419d56c65b5da586500f4525e70ec *ph1993-02-21d2t17.wav
f01ef67a36a1b6427348a4407bcb163c *ph1993-02-21d2t18.wav

Comments
Add Comment
Other Sources (comments)
shn or flac16; AKG... (3) Set 2 only; SBD > DAT... (0) Set 2 only; SBD > DAT... (0)
Date User Comment