Browse Collections Artists Sources   Search Dates

Add Show    List Management    Help


Phish 10/07/94
Stabler Arena, Bethlehem, PA
Comments Add Comment    Source Collectors    Add to Collection    Add to Want List    History
Source # 89499 Other Sources
Entered by Jason Sobel
Checksums all_ffp , all_wav_md5
Disc Counts 2 / 3
Media Size
Date Circulated
Date Added
01/13/2008
01/13/2008
Source Summary (FOB) Schoeps mk4 (ORTF) > kc5 > cmc5 > Sonosax SX-M2 > Apogee AD-500e > Sony D10 Pro II (@ 48 kHz); Tascam DA-20MKII > Tascam HD-P2 > WaveLab 5.01b (de-emphasis, fades, 48 to 44.1 kHz, splice) > CD Wave v1.96.1 > FLAC v1.2.1 (Level 8); Taped by Eliot Byron; Transferred by Jason Sobel 
Source Information - Download Text | Download Zip
Phish
October 7, 1994
Stabler Arena, Lehigh University
Bethlehem, PA

source:
(FOB) Schoeps mk4 (ORTF) > kc5 > cmc5 > Sonosax SX-M2 > Apogee AD-500e >  Sony D10 Pro II (@ 48 kHz)

transfer:
Tascam DA-20MKII > Tascam HD-P2 > CF card > usb 2.0 > pc > WaveLab 5.01b (de-emphasis, fades, resample to 44.1 kHz, splice) > CD Wave v1.96.1 > FLAC v1.2.1 (Level 8)

FLAC tags added with metaflac v1.2.1

recorded by Eliot Byron
transferred by Jason Sobel ([email protected])
seeded January 13, 2008

notes:
The original DAT recording was made with pre-emphasis.
The Waves Q10 Paragraphic EQ (v5.0) plug-in was used to de-emphasize the recording.
The original 48 kHz .wav files from the DAT transfer have been archived, and are available upon request.
Big thanks to Eliot for letting me borrow the master DATs!

Disc 1 - [71:03]
Set I
01 - [06:48] - My Friend My Friend
02 - [07:58] - Julius
03 - [04:17] - Glide
04 - [02:17] - Poor Heart
05 - [14:14] - The Divided Sky
06 - [06:08] - Guelah Papyrus
07 - [13:05] - Stash
08 - [11:30] - Guyute *
09 - [04:47] - Golgi Apparatus

Disc 2 - [45:38]
Set II
01 - [11:07] - Maze
02 - [01:16] - The Horse >
03 - [05:04] - Silent in the Morning
04 - [14:27] - Reba
05 - [05:08] - Wilson
06 - [08:35] - Scent of a Mule

Disc 3 - [41:37]
Set II continued
01 - [13:45] - Tweezer
02 - [08:00] - Lifeboy
03 - [02:07] - My Sweet One
04 - [02:57] - Tweezer Reprise
05 - [03:06] - encore break
06 - [06:54] - Foreplay/Long Time **
07 - [04:48] - Cavern

* debut
** debut, Trey on acoustic guitar, Mike on banjo, Page on stand-up bass, and Fish on washboard

splice notes:
The start of "My Friend My Friend" was missing from Eliot's DAT.
I spliced in the missing portion with the following source:

AKG 460B/ck61 > custom pre-amp > Sony D7 (@ 48kHz)
recorded by Dave Flaschner
http://db.etree.org/shn/79950

The AKG patch source was used for the following portion of "My Friend My Friend":
[00:00] to [01:49]

------------------------------------------------------------------------------------------

SHNtool output:

    length     expanded size   cdr  WAVE problems filename
     6:47.61       71938316    ---   --   ---xx   ph1994-10-07d1t01.flac
     7:57.54       84269852    ---   --   ---xx   ph1994-10-07d1t02.flac
     4:16.52       45280748    ---   --   ---xx   ph1994-10-07d1t03.flac
     2:17.15       24202124    ---   --   ---xx   ph1994-10-07d1t04.flac
    14:13.70      150633884    ---   --   ---xx   ph1994-10-07d1t05.flac
     6:07.64       64889372    ---   --   ---xx   ph1994-10-07d1t06.flac
    13:04.41      138394076    ---   --   ---xx   ph1994-10-07d1t07.flac
    11:29.68      121699580    ---   --   ---xx   ph1994-10-07d1t08.flac
     4:46.74       50624492    ---   --   ---xx   ph1994-10-07d1t09.flac
    11:07.09      117680012    ---   --   ---xx   ph1994-10-07d2t01.flac
     1:16.34       13486412    ---   --   ---xx   ph1994-10-07d2t02.flac
     5:04.27       53689148    ---   --   ---xx   ph1994-10-07d2t03.flac
    14:26.67      152920028    ---   --   ---xx   ph1994-10-07d2t04.flac
     5:07.47       54265388    ---   --   ---xx   ph1994-10-07d2t05.flac
     8:35.27       90909548    ---   --   ---xx   ph1994-10-07d2t06.flac
    13:44.63      145501820    ---   --   ---xx   ph1994-10-07d3t01.flac
     8:00.25       84730844    ---   --   ---xx   ph1994-10-07d3t02.flac
     2:06.57       22360508    ---   --   ---xx   ph1994-10-07d3t03.flac
     2:57.23       31276940    ---   --   ---xx   ph1994-10-07d3t04.flac
     3:05.71       32801036    ---   --   ---xx   ph1994-10-07d3t05.flac
     6:53.39       72944972    ---   --   ---xx   ph1994-10-07d3t06.flac
     4:48.36       50887916    ---   --   ---xx   ph1994-10-07d3t07.flac
   158:17.49     1675387016 B                     (totals for 22 files, 0.5088 overall compression ratio)
Show Checksums
all_ffp
ph1994-10-07d1t01.flac:63f4971333be716b57eb59071504fa8f
ph1994-10-07d1t02.flac:33b891d74250092635a8656131911f7a
ph1994-10-07d1t03.flac:9f7f0d0dfc2fd0833c0cb9e8af127309
ph1994-10-07d1t04.flac:707e093543998100c9b65728f44057cb
ph1994-10-07d1t05.flac:403f2fe620fcdf9d5bd0e498b6ac9920
ph1994-10-07d1t06.flac:250b5d3a5ee9d09195bdad1ed480c095
ph1994-10-07d1t07.flac:dc4995580e22191b035e651cb0051ec5
ph1994-10-07d1t08.flac:1e168724cadc69262669aaf570e84e5f
ph1994-10-07d1t09.flac:e72e641c38b79362521bdde591178bf0
ph1994-10-07d2t01.flac:8d000fc837e9b88aaf03dc42a85f8328
ph1994-10-07d2t02.flac:9bbe8d8b2b39d5e7bc3a0d3eb04e8fd3
ph1994-10-07d2t03.flac:88cd11d1a709ae9cde8218213b1bee6b
ph1994-10-07d2t04.flac:f05270631bba914bc5c51c7de93c6348
ph1994-10-07d2t05.flac:15d457b83e85a3cf0d8d28a790eddc67
ph1994-10-07d2t06.flac:57baf7a3a9590f31357019c2a8071b62
ph1994-10-07d3t01.flac:6b8521d25bdc9c62169e6306567fb949
ph1994-10-07d3t02.flac:afe20ea3b89524ecc119cfde47d3d47d
ph1994-10-07d3t03.flac:253d5649d166ad3ca510073482cc0467
ph1994-10-07d3t04.flac:61195e81d98aac49256dadc54ea2d032
ph1994-10-07d3t05.flac:1e63e77d0772fbaa54bf7cd43a47ab40
ph1994-10-07d3t06.flac:878cf2cdd2a07111662dba60cc840b7c
ph1994-10-07d3t07.flac:37a90568836e709d89da64a7f54eca3b
all_wav_md5
7a033a5f348bb1f88a5c0dd92ef0e56a *ph1994-10-07d1t01.wav
62a1420335294211be99f9e8ff44e6ae *ph1994-10-07d1t02.wav
e6d888550ce211c824a2e457aaf250b3 *ph1994-10-07d1t03.wav
3f3ff57e1338b93f289251e4ed38e625 *ph1994-10-07d1t04.wav
b9bee4f51d77b16b0676b32958d4d257 *ph1994-10-07d1t05.wav
43a9859fd998501a65b62fc9ca9401f4 *ph1994-10-07d1t06.wav
58750de42452ad2298871e329ca7a7db *ph1994-10-07d1t07.wav
c069a98a9699e4a7438dfa23d6551f48 *ph1994-10-07d1t08.wav
7510a7bd20016cc01597673cada99326 *ph1994-10-07d1t09.wav
3d8105cfcda85d67d770c0af049db417 *ph1994-10-07d2t01.wav
ccd8884b18811079a630521c86a8afa2 *ph1994-10-07d2t02.wav
91d18be648b20064a4a7469654eb3be3 *ph1994-10-07d2t03.wav
c0b7ef501c536e113b90158f431e3347 *ph1994-10-07d2t04.wav
876ddbc4ac5eda8e43c3d3b8a0a6f894 *ph1994-10-07d2t05.wav
76fb66c7435f2f78b5d0bfb137fcfd43 *ph1994-10-07d2t06.wav
d232ba522459839910ff57342d1869b8 *ph1994-10-07d3t01.wav
91f1816687cf9da9388d9aa4be02c5fc *ph1994-10-07d3t02.wav
9a113b8d1bc7a39031c2f674505198cf *ph1994-10-07d3t03.wav
63a4a4cd4dff14569f7d4a67ba516ccb *ph1994-10-07d3t04.wav
8c03fa054d6d0eb68cf4552c40337e94 *ph1994-10-07d3t05.wav
a8bfd21cbefc706bd82058a992b9fb85 *ph1994-10-07d3t06.wav
b17230c817816e6db2fc2154050463f5 *ph1994-10-07d3t07.wav

Comments
Add Comment
Other Sources (comments)
AKG 460/ck61 (1) AKG 460B/ck61 > custom... (0)
Date User Comment