Browse Collections Artists Sources   Search Dates

Add Show    List Management    Help


Grateful Dead 09/26/80
Warfield Theater, San Francisco, CA
Comments Add Comment    Source Collectors    Add to Collection    Add to Want List    History
Source # 89536 Other Sources
Entered by Matt Vernon
Checksums ffp , flac-md5
Disc Counts 2 / 3
Media Size
Date Circulated
Date Added
01/16/2008
01/16/2008
Source Summary flac16; Recording by Ron Ellner: Source: Master Cassette > Nakamichi 700s > Sony TC D-5M; Location: FOB either on the floor or 1st row balcony; 1st Generation copy to Teac Reel to Reel; Transfer: Pioneer RT-701 Reel to Reel > Soundblaster Soundcard > Soundforge > CD; CD Extraction: EAC > TLH > FLAC level 8; Recorded and archived to Reels by Ron Ellner, the master cassettes were stolen. Transfer: Reels to PC by Mike Marino; CD Extraction and seeded by Bill Koucky; Green Mountain Bros. January 2008.  
  Archive
Source Information - Download Text | Download Zip
Grateful Dead
Warfield Theater
San Francisco, CA
September 26, 1980 Friday

Source: Master Cassette > Nakamichi 700s > Sony TC D-5M
Location: FOB either on the floor or 1st row balcony
1st Generation copy to Teac Reel to Reel
Transfer: Pioneer RT-701 Reel to Reel > Soundblaster Soundcard > Soundforge > CD
CD Extraction: EAC > TLH > FLAC level 8
Recorded and archived to Reels by Ron Ellner, the master cassettes were stolen.
Transfer: Reels to PC by Mike Marino
CD Extraction and seeded by Bill Koucky
Green Mountain Bros. January 2008

Disc 1          44:43
Acoustic Set:

1. To Lay Me Down
2. On The Road Again
3. I've Been All Around This World
4. Dark Hollow
5. Rosalie McFall
6. Bird Song
7. Cassidy
8. China Doll >
9. Ripple

Disc 2          78:47
1st Electric Set:

1. Feel Like A Stanger
2. Sugaree
3. Me & My Uncle >
4. Big River
5. Peggy-O
6. Minglewood Blues
7. Candyman
8. Looks Like Rain
9. Tennessee Jed >
10. Lost Sailor >
11. Saint Of Circumstance

Disc 3          78:45
2nd Electric Set:

1. //Scarlet Begonias >
2. Fire On The Mountain
3. Estimated Prophet >
4. Eyes Of The World >
5. Drums >
6. Space >
7. Not Fade Away >
8. Black Peter >
9. Sugar Magnolia
Encore:
10. Brokedown Palace

Notes: Levels are hot in some places. Cut in d2t03 (Me & My Uncle) at 1:00; a small amount of music is missing, tune picks up in Jerry's solo. Starting at about 3:25, d3t10 (Brokedown Palace) has periodic digisnits.


SHNTOOL OUTPUT:
    length     expanded size   cdr  WAVE problems filename
     8:15.37       87405068    ---   --   ---xx   gd1980-09-26d1t01.flac
     3:15.36       34482716    ---   --   ---xx   gd1980-09-26d1t02.flac
     4:25.30       46816604    ---   --   ---xx   gd1980-09-26d1t03.flac
     4:24.69       46731932    ---   --   ---xx   gd1980-09-26d1t04.flac
     3:08.12       33191468    ---   --   ---xx   gd1980-09-26d1t05.flac
     7:03.11       74643116    ---   --   ---xx   gd1980-09-26d1t06.flac
     4:56.57       52348508    ---   --   ---xx   gd1980-09-26d1t07.flac
     4:35.29       48578252    ---   --   ---xx   gd1980-09-26d1t08.flac
     4:38.60       49180364    ---   --   ---xx   gd1980-09-26d1t09.flac
     8:53.40       94115324    ---   --   ---xx   gd1980-09-26d2t01.flac
    10:55.63      115690220    ---   --   ---xx   gd1980-09-26d2t02.flac
     2:43.39       28844972    ---   --   ---xx   gd1980-09-26d2t03.flac
     6:44.13       71296220    ---   --   ---xx   gd1980-09-26d2t04.flac
     6:23.65       67714124    ---   --   ---xx   gd1980-09-26d2t05.flac
     7:09.11       75701516    ---   --   ---xx   gd1980-09-26d2t06.flac
     7:18.58       77399660    ---   --   ---xx   gd1980-09-26d2t07.flac
     7:10.04       75861452    ---   --   ---xx   gd1980-09-26d2t08.flac
     8:36.54       91149452    ---   --   ---xx   gd1980-09-26d2t09.flac
     6:16.09       66347612    ---   --   ---xx   gd1980-09-26d2t10.flac
     6:35.01       69680396    ---   --   ---xx   gd1980-09-26d2t11.flac
     7:23.27       78208748    ---   --   ---xx   gd1980-09-26d3t01.flac
     8:01.35       84930764    ---   --   ---xx   gd1980-09-26d3t02.flac
     9:26.02       99847148    ---   --   ---xx   gd1980-09-26d3t03.flac
     8:04.66       85532876    ---   --   ---xx   gd1980-09-26d3t04.flac
     9:12.15       97408124    ---   --   ---xx   gd1980-09-26d3t05.flac
     4:46.45       50556284    ---   --   ---xx   gd1980-09-26d3t06.flac
     7:40.70       81308684    ---   --   ---xx   gd1980-09-26d3t07.flac
     8:28.44       89714732    ---   --   ---xx   gd1980-09-26d3t08.flac
     8:38.11       91401116    ---   --   ---xx   gd1980-09-26d3t09.flac
     6:51.48       72613340    ---   --   ---xx   gd1980-09-26d3t10.flac
   202:04.11     2138700792 B                     (totals for 30 files, 0.5446 overall compression ratio)
Show Checksums
ffp
gd1980-09-26d1t01.flac:d3b677d5032c8c91381166ae747c1fd6
gd1980-09-26d1t02.flac:7dffd2271970c19cc5029dfdde5fdd33
gd1980-09-26d1t03.flac:d4c1082511406feb827309ca2779774e
gd1980-09-26d1t04.flac:39794701011a10e3f34469d77c7aa31d
gd1980-09-26d1t05.flac:6904e3abb124bde0052a17467152c6e6
gd1980-09-26d1t06.flac:a74ca6a4c9fddedd9d9ae92bfd6dfeb9
gd1980-09-26d1t07.flac:566f87d4fd7b2fe676a500f1e55254b5
gd1980-09-26d1t08.flac:097fcdb582c7ebce806c5ec9249d56aa
gd1980-09-26d1t09.flac:27a3c312bac8a9d83eb49ee8b4d00117
gd1980-09-26d2t01.flac:b37230821056e4a7b59cd9f0e1c3cb60
gd1980-09-26d2t02.flac:5161335ae168e23ead477191f30a7bd0
gd1980-09-26d2t03.flac:c9ac801c026713a51f3792f3d1e3ce4e
gd1980-09-26d2t04.flac:71faa3bf715bdf11afb0c54f62a924b0
gd1980-09-26d2t05.flac:d8a9c5d6a2974079a21cf42597166b05
gd1980-09-26d2t06.flac:c3a3d6f8706c2a5994267a02b61592b6
gd1980-09-26d2t07.flac:d72448560710c19008d1164e57ec6f89
gd1980-09-26d2t08.flac:faa649e947ce4623b84540178f209d76
gd1980-09-26d2t09.flac:72b5c801d3b2866b55a8400e2b7ea0af
gd1980-09-26d2t10.flac:14929e980c35a85222f0c1c99712978e
gd1980-09-26d2t11.flac:2fc93003cbf913041de02bee0181ef63
gd1980-09-26d3t01.flac:76edd067862dcdb745f0215015524bc3
gd1980-09-26d3t02.flac:a98a7a92a87beb30ba98b8ae21b3e029
gd1980-09-26d3t03.flac:b968c3e1ddda7e01559c0140fcc5c3bd
gd1980-09-26d3t04.flac:b585751439e01eca607d0e67bdc1cb29
gd1980-09-26d3t05.flac:75cf9f9f37c3187b834fe1062332bd17
gd1980-09-26d3t06.flac:e79fad227297e153a801eae8a8bf23b7
gd1980-09-26d3t07.flac:39660e91c5acabe25d1ef8c167a1d869
gd1980-09-26d3t08.flac:3ccc88bee54990d424a246d659e4183d
gd1980-09-26d3t09.flac:aa33e17cb30a4b075b6ee5a9ed2bfaca
gd1980-09-26d3t10.flac:9c596d5e2d7d4539c86552ae74564ffd
flac-md5
b30d4bb6c37ca05b7a830e09059076eb *gd1980-09-26d1t01.flac
145204d2deedec095830356ea18dc7b9 *gd1980-09-26d1t02.flac
9524a5e4febd5d80a0c755757679a987 *gd1980-09-26d1t03.flac
f928a24956f106cfe1e99e6a26407f1d *gd1980-09-26d1t04.flac
5ab2c66873c3448a5a57e46d206819ff *gd1980-09-26d1t05.flac
22b960c3b58b4be33752eff1a2c4dfea *gd1980-09-26d1t06.flac
d7887cb914057d158ff90f3d789e4212 *gd1980-09-26d1t07.flac
1e64be79c9e6b1430cb926d646c935e0 *gd1980-09-26d1t08.flac
01ba1fa44e7d00155c0100dc9f6e5718 *gd1980-09-26d1t09.flac
2dedae7cf0bde635b5472b1ec2aff5af *gd1980-09-26d2t01.flac
2243fb966df84539f2becf54c63f30df *gd1980-09-26d2t02.flac
24fc3a9e310b8227acd29dc6b945dc98 *gd1980-09-26d2t03.flac
647535770fc509cc58db99247217a21f *gd1980-09-26d2t04.flac
6335611d8a2804d75332ea132a09a561 *gd1980-09-26d2t05.flac
7d883b716b55cf55614713fac2c7ff69 *gd1980-09-26d2t06.flac
a24754c14e2980d307f1ec8528501050 *gd1980-09-26d2t07.flac
dee61a70ee12d9c70731f89f52c649f6 *gd1980-09-26d2t08.flac
91ccecdbdf44e0ae00eb78987f8f547a *gd1980-09-26d2t09.flac
4a90ac68a40a3e9836d749c7523ae8b5 *gd1980-09-26d2t10.flac
721c8061aaf36368c4778928aec1b3e9 *gd1980-09-26d2t11.flac
05f590e84ee857c09c62e7c0611c10fb *gd1980-09-26d3t01.flac
fb5d95a4e8675776b9dfcbf4add9e96c *gd1980-09-26d3t02.flac
6b77007f15f1d1122e7481e7c31ffba4 *gd1980-09-26d3t03.flac
9532dea68a2cd2bfe9325733ed8c1774 *gd1980-09-26d3t04.flac
82b440d0c916dce38991df7046be6515 *gd1980-09-26d3t05.flac
c55035d7e562740dfaadebcc4e58fab0 *gd1980-09-26d3t06.flac
f809bf33b72eb1e9a3aca1ac1d6fc627 *gd1980-09-26d3t07.flac
c6b7be4da37386dfa384137e1977e27b *gd1980-09-26d3t08.flac
ee0dc59f8089957e07d797c5f9e4406c *gd1980-09-26d3t09.flac
f6ac15815e3b4f1b55606ff2691acbb3 *gd1980-09-26d3t10.flac

Comments
Add Comment
Other Sources (comments)
Recording (attributed to )... (0) Acoustic Set only; SBD > MR... (0) flac16; Recording... (0)
Date User Comment