Browse Collections Artists Sources   Search Dates

Add Show    List Management    Help


Grateful Dead 09/30/80
Warfield Theater, San Francisco, CA
Comments Add Comment    Source Collectors    Add to Collection    Add to Want List    History
Source # 89554 Other Sources
Entered by Matt Vernon
Checksums ffp , flac-md5
Disc Counts 2 / 3
Media Size
Date Circulated
Date Added
01/18/2008
01/18/2008
Source Summary flac16; Recording by Ron Ellner. Source: Master Cassette > Nakamichi 700s > Sony TC D-5M; Location: FOB either on the floor or 1st row balcony; 1st Generation copy to Teac Reel to Reel; Transfer: Pioneer RT-701 Reel to Reel > Soundblaster Soundcard > Soundforge > CD; CD Extraction: EAC > TLH > FLAC level 8; Recorded and archived to Reels by Ron Ellner, the master cassettes were stolen. Transfer: Reels to PC by Mike Marino; CD Extraction and seeded by Bill Koucky; Green Mountain Bros. January 2008. 
  Archive
Source Information - Download Text | Download Zip
Grateful Dead
Warfield Theater
San Francisco, CA
September 30, 1980 Thursday

Source: Master Cassette > Nakamichi 700s > Sony TC D-5
Location: FOB either on the floor or 1st row balcony
1st Generation copy to Teac Reel to Reel
Transfer: Pioneer RT-701 Reel to Reel > Soundblaster Soundcard > Soundforge > CD
CD Extraction: EAC > TLH > FLAC level 8
Recorded and archived to Reels by Ron Ellner, the master cassettes were stolen.
Transfer: Reels to PC by Mike Marino
CD Extraction and seeded by Bill Koucky
Green Mountain Bros. January 2008

Disc 1 61:26
Acoustic Set:

1. On The Road Again
2. Jack A Roe
3. Monkey & The Engineer
4. Bird Song
5. Dark Hollow
6. Rosalie McFall
7. Heaven Help The Fool
8. China Doll
9. Oh Babe It Ain't No Lie
10. Ripple

1st Electric Set:
11. Alabama Getaway >
12. Promised Land

Disc 2 77:28
1st Electric Set cont:

1. Peggy-O
2. Beat It On Down The Line
3. Friend Of The Devil
4. Lazy Lightning > Supplication
5. Loser
6. Little Red Rooster
7. Big Railroad Blues

2nd Electric Set:
8. Feel Like A Stranger >
9. Franklin's Tower
10. Samson & Delilah

Disc 3 73:46
2nd electric Set cont:

1. He's Gone >
2. Estimated Prophet >
3. Drums >
4. Space >
5. The Other One >
6. Black Peter >
7. Good Lovin'
Encore:
8. Brokedown Palace

Notes: Slight retracking from source CD to allow encore to be placed at end of disc 3.
Crossfades were applied before Samson & Delilah and Brokedown Palace. Discs are seamless. Static pops here and there.


SHNTOOL OUTPUT:
    length     expanded size   cdr  WAVE problems filename
     4:02.25       42747644    ---   --   ---xx   gd1980-09-30d1t01.flac
     4:31.10       47827964    ---   --   ---xx   gd1980-09-30d1t02.flac
     2:59.54       31702652    ---   --   ---xx   gd1980-09-30d1t03.flac
     9:10.56       97151756    ---   --   ---xx   gd1980-09-30d1t04.flac
     4:51.30       51403004    ---   --   ---xx   gd1980-09-30d1t05.flac
     2:59.51       31695596    ---   --   ---xx   gd1980-09-30d1t06.flac
     7:18.22       77314988    ---   --   ---xx   gd1980-09-30d1t07.flac
     5:34.49       59032892    ---   --   ---xx   gd1980-09-30d1t08.flac
     6:24.19       67782332    ---   --   ---xx   gd1980-09-30d1t09.flac
     4:47.35       50709164    ---   --   ---xx   gd1980-09-30d1t10.flac
     4:21.36       46125116    ---   --   ---xx   gd1980-09-30d1t11.flac
     4:25.20       46793084    ---   --   ---xx   gd1980-09-30d1t12.flac
     6:19.18       66897980    ---   --   ---xx   gd1980-09-30d2t01.flac
     4:35.36       48594716    ---   --   ---xx   gd1980-09-30d2t02.flac
     9:21.07       98976908    ---   --   ---xx   gd1980-09-30d2t03.flac
    11:47.56      124846556    ---   --   ---xx   gd1980-09-30d2t04.flac
     7:54.12       83641868    ---   --   ---xx   gd1980-09-30d2t05.flac
     8:18.50       87964844    ---   --   ---xx   gd1980-09-30d2t06.flac
     4:09.52       44045948    ---   --   ---xx   gd1980-09-30d2t07.flac
     9:16.02       98083148    ---   --   ---xx   gd1980-09-30d2t08.flac
     7:43.30       81743804    ---   --   ---xx   gd1980-09-30d2t09.flac
     8:03.15       85236524    ---   --   ---xx   gd1980-09-30d2t10.flac
    11:18.72      119768588    ---   --   ---xx   gd1980-09-30d3t01.flac
    10:56.21      115767836    ---   --   ---xx   gd1980-09-30d3t02.flac
    12:24.05      131253404    ---   --   ---xx   gd1980-09-30d3t03.flac
     9:43.36      102925916    ---   --   ---xx   gd1980-09-30d3t04.flac
     6:09.07       65108108    ---   --   ---xx   gd1980-09-30d3t05.flac
     9:11.60       97337564    ---   --   ---xx   gd1980-09-30d3t06.flac
     8:27.33       89512460    ---   --   ---xx   gd1980-09-30d3t07.flac
     5:33.46       58849436    ---   --   ---xx   gd1980-09-30d3t08.flac
   212:39.65     2250841800 B                     (totals for 30 files, 0.5762 overall compression ratio)
Show Checksums
ffp
gd1980-09-30d1t01.flac:0d5e7e9fbf457147d7271b5a35b1a44f
gd1980-09-30d1t02.flac:bbc955013429713c7da5d8c9178b571d
gd1980-09-30d1t03.flac:97b3686329cccf116d8da8a646da54c9
gd1980-09-30d1t04.flac:2e9f98d50487476a501a35e328b1ff7c
gd1980-09-30d1t05.flac:e3a07456b26ec56d16e55a8f84224b4c
gd1980-09-30d1t06.flac:8ca99ec8145cdbad95a3addabf3a96ab
gd1980-09-30d1t07.flac:6097cd5432846d383ea20997118622ca
gd1980-09-30d1t08.flac:1f741f19b6928dcf1400c026b20ea17f
gd1980-09-30d1t09.flac:677afd3152d5c9a1a3e69bea6688ecf3
gd1980-09-30d1t10.flac:cb8f0445a412f1e314ee599502b3247f
gd1980-09-30d1t11.flac:4f6d7fc0cafbadf6186ef94857fb5c46
gd1980-09-30d1t12.flac:d9222f31fccd6b85f632af4e27491107
gd1980-09-30d2t01.flac:297f8f472ccccd9818cc7dbfb8792e77
gd1980-09-30d2t02.flac:a8850f5c4961ced744a7e1cae7fb3e0a
gd1980-09-30d2t03.flac:66b33dcfc1024e1064cd06a7bc2ab517
gd1980-09-30d2t04.flac:b4caa0c3e885f80a81067479d7427b20
gd1980-09-30d2t05.flac:1bca04e9332dc01920218c67451070e1
gd1980-09-30d2t06.flac:4f3636a1469a4e2e58ddfa0aa5ff7650
gd1980-09-30d2t07.flac:279c7897f573f706dc434dcffe931137
gd1980-09-30d2t08.flac:be4f7687d66dccd9d97b7fd490ee66ae
gd1980-09-30d2t09.flac:24b5e81fc91962372be592025acdda7b
gd1980-09-30d2t10.flac:e87d128674d833d9b875925611d153af
gd1980-09-30d3t01.flac:951853bee776454742ea554a502b184f
gd1980-09-30d3t02.flac:82ebc61a3691cc28e688d8fb6bcdf3c7
gd1980-09-30d3t03.flac:dd24278ae7430402d297db31c7c1c3fe
gd1980-09-30d3t04.flac:e6b0d52d6a63087551b54ddf25f1e669
gd1980-09-30d3t05.flac:69d3f5d59036f29f3b83cc3e83b02be7
gd1980-09-30d3t06.flac:35a6354c651cfca48119c9a994a79beb
gd1980-09-30d3t07.flac:03182e14d1bd35e1d6edebbfd00e42d7
gd1980-09-30d3t08.flac:71eb15dd08be0063ceebfa76571aa76b
flac-md5
5e7c0352701761b140ca4eb244c1c207 *gd1980-09-30d1t01.flac
2ff038e188c72350e75af7145398b740 *gd1980-09-30d1t02.flac
9be9d12557b03ba441e75b9402615c7f *gd1980-09-30d1t03.flac
b63d7f57dfda013bf1789d2209f97548 *gd1980-09-30d1t04.flac
ec8cbb792bc4274300d1d016574afde3 *gd1980-09-30d1t05.flac
e80fe46663a8352a4856b3808be367c4 *gd1980-09-30d1t06.flac
234df2cbfcfee10822709b56e6c4dffb *gd1980-09-30d1t07.flac
59bf1e745d5375fae1e20c366d38cc4e *gd1980-09-30d1t08.flac
f0fe06a3a2c2e1be77e9ba799e307774 *gd1980-09-30d1t09.flac
4a3b56ac510f4989a81b27c0701f6e8f *gd1980-09-30d1t10.flac
6ce47ebf6140f521ca7707388f871273 *gd1980-09-30d1t11.flac
3c0a233dc992f19d33e54d30df3b19f2 *gd1980-09-30d1t12.flac
b1d98d8ae46781282764e252582b6519 *gd1980-09-30d2t01.flac
27c0c3f93ded7e37d2a098cd761aa6cc *gd1980-09-30d2t02.flac
3fd723f2163d9166aa78a69cd9a818f7 *gd1980-09-30d2t03.flac
1809dbf3b0f498f9f0628c47c302eff7 *gd1980-09-30d2t04.flac
d5717c0d9ca67231b65ac5d93830e6df *gd1980-09-30d2t05.flac
7c58a0ff7d3a8a038429db8b13e1a715 *gd1980-09-30d2t06.flac
19dab166ba1c6262b718e6a6caabfce4 *gd1980-09-30d2t07.flac
b7caf84c4a12e79ade0e355294d8cd84 *gd1980-09-30d2t08.flac
ed4e95f34be2da349c4019f7a6243176 *gd1980-09-30d2t09.flac
1c4b198d6a70b1fe8711cc2806f2f2bb *gd1980-09-30d2t10.flac
fdce3ce448e1888e8379f16a59e8c3a0 *gd1980-09-30d3t01.flac
01552bdf2acadcbd2ec187c73564bada *gd1980-09-30d3t02.flac
49a445f20773e41cc4ff7cd51dad6317 *gd1980-09-30d3t03.flac
843c19c9ec17d1268e167bb418269451 *gd1980-09-30d3t04.flac
d98c818b82f36598fc86eb91e7e6dbea *gd1980-09-30d3t05.flac
2dffe91588051081039b8ba88027b5bf *gd1980-09-30d3t06.flac
48345fb2193809e26296abbbc30a5aac *gd1980-09-30d3t07.flac
8c0496c8524a4206ca2aba34d901d084 *gd1980-09-30d3t08.flac

Comments
Add Comment
Other Sources (comments)
Source: Recording... (0) flac16; Acoustic Set... (0) flac16; Recording... (0) flac16; 2 source... (0)
Date User Comment