Browse Collections Artists Sources   Search Dates

Add Show    List Management    Help


Grateful Dead 10/11/89
Meadowlands Arena, East Rutherford, NJ
Comments Add Comment    Source Collectors    Add to Collection    Add to Want List    History
Source # 89613 Other Sources
Entered by Gary Field
Checksums ffp , flac-md5
Disc Counts 2 / 3
Media Size
Date Circulated
Date Added
01/21/2008
01/21/2008
Source Summary flac16; AUD: Sennheiser MD-421's > patched thru one D5 > Sony TC-D5M > Maxell MX-90's, with no Dolby. Mics on 8-foot stand, front row of OTS. Transfer: MAC > Nakamichi DR-8 (no Dolby) > Audiophile 2496 analog-in > Soundforge > CD-Wave > TLH > FLAC. Taped and transferred by Andrew F. 
  Archive
Source Information - Download Text | Download Zip
GRATEFUL DEAD
Brendan Byrne Arena
East Rutherford NJ
10-11-1989

Disc One (63:58)

01 crowd & tuning
02 Let the Good Times Roll >
03 Bertha >
04 Greatest Story Ever Told
05 Loser
06 When I Paint My Masterpiece
07 Althea
08 Cassidy
09 Just a Little Light >
10 Don't Ease Me In
-- set break --

Disc Two (46:46)

01 crowd & tuning
02 China Cat Sunflower >
03 I Know You Rider
04 Estimated Prophet >
05 Terrapin >
06 Drums// (tape flip)

Disc Three (54:21)

01 Drums >
02 Space >
03 The Wheel >
04 All Along the Watchtower >
05 Black Peter >
06 Turn on Your Lovelight
-- encore --
07 crowd & tuning
08 It's All Over Now, Baby Blue

AUD: Sennheiser MD-421's > patched thru one D5 > Sony TC-D5M > Maxell
MX-90's, with no Dolby. Mics on 8-foot stand, front row of OTS.

Transfer: MAC > Nakamichi DR-8 (no Dolby) > Audiophile 2496 analog-in >
Soundforge > CD-Wave > TLH > FLAC. Taped and transferred by Andrew F.

Notes:
- Mic cable problems in the left channel; the right channel cross-faded
on top of the drop-outs, as follows:
- Crowd 0:28, 0:45, 0:49, Bertha 0:32, 0:57>1:02, 1:06>1:11, 1:24, 1:38>
1:54, 2:18, 2:33>2:36, Estimated 10:56, Terrapin 1:19>1:42, 14:44>14:52,
Drums 0:00>1:14, 3:08>3:39.
- Both channels drop-out at 0:50 of LTGTR, aprx 2 seconds missing.
- Soundforge used for fades, repair drop-outs, adjust levels.
- TLH used for SBE-OK, FLAC compression, and checksums.

* In Memory of Adam Katz *

shntool

    length     expanded size   cdr  WAVE problems filename
     3:22.53       35757500    ---   --   ---xx   gd1989-10-11d1t01.flac
     3:47.27       40106348    ---   --   ---xx   gd1989-10-11d1t02.flac
     6:51.30       72571004    ---   --   ---xx   gd1989-10-11d1t03.flac
     5:36.51       59390396    ---   --   ---xx   gd1989-10-11d1t04.flac
     8:52.64       93995372    ---   --   ---xx   gd1989-10-11d1t05.flac
     7:25.35       78580364    ---   --   ---xx   gd1989-10-11d1t06.flac
     8:48.33       93216860    ---   --   ---xx   gd1989-10-11d1t07.flac
    10:22.65      109873724    ---   --   ---xx   gd1989-10-11d1t08.flac
     5:24.03       57160700    ---   --   ---xx   gd1989-10-11d1t09.flac
     3:26.20       36385484    ---   --   ---xx   gd1989-10-11d1t10.flac
     0:36.13        6381020    ---   --   ---xx   gd1989-10-11d2t01.flac
     9:24.65       99642524    ---   --   ---xx   gd1989-10-11d2t02.flac
     6:27.18       68309180    ---   --   ---xx   gd1989-10-11d2t03.flac
    11:01.15      116635724    ---   --   ---xx   gd1989-10-11d2t04.flac
    14:52.48      157461740    ---   --   ---xx   gd1989-10-11d2t05.flac
     4:24.42       46668428    ---   --   ---xx   gd1989-10-11d2t06.flac
     5:20.21       56497436    ---   --   ---xx   gd1989-10-11d3t01.flac
    10:00.41      105936476    ---   --   ---xx   gd1989-10-11d3t02.flac
     6:33.73       69496940    ---   --   ---xx   gd1989-10-11d3t03.flac
     6:28.66       68598476    ---   --   ---xx   gd1989-10-11d3t04.flac
     9:21.19       99005132    ---   --   ---xx   gd1989-10-11d3t05.flac
     7:31.28       79622300    ---   --   ---xx   gd1989-10-11d3t06.flac
     1:22.36       14549516    ---   --   ---xx   gd1989-10-11d3t07.flac
     7:42.49       81612092    ---   --   ---xx   gd1989-10-11d3t08.flac
   165:06.15     1747454736 B                     (totals for 24 files, 0.5624 overall compression ratio)

There were no sector boundary errors.
Show Checksums
ffp
gd1989-10-11d1t01.flac:74b01cf6c7b5c1f37dbe6d20d8c4a7b2
gd1989-10-11d1t02.flac:9bd2abbb43f36ca89ce82f92dcd84c23
gd1989-10-11d1t03.flac:9dabb0e62cb69c6c87db656fa367ed96
gd1989-10-11d1t04.flac:b3f329f022f27fb26e7fdeb5fdcee2ec
gd1989-10-11d1t05.flac:d4971acd4252eed152f66a07805581f3
gd1989-10-11d1t06.flac:d9bf0c49c75e5e310ea8a4fd12620139
gd1989-10-11d1t07.flac:fd12ef6bcaad109846288c459e6ea0ec
gd1989-10-11d1t08.flac:ca3f0b4f189ecaae5e0112a9ba47b7e2
gd1989-10-11d1t09.flac:0bc9e9fceccd4536c7216301bc487f89
gd1989-10-11d1t10.flac:ef9d71288c2a07f90a90e280ab30567b
gd1989-10-11d2t01.flac:e68804bf60fa264a8ef7d4d5dfb42906
gd1989-10-11d2t02.flac:9eec46879b7ad08ce9e9c63ef3a9d5b7
gd1989-10-11d2t03.flac:80f74ac1dc110bc57cfef270dcf3f5a1
gd1989-10-11d2t04.flac:85ebad74e7a60afefb86e3fcf4ae0088
gd1989-10-11d2t05.flac:ae83712237be8af425623e7f0799c0f6
gd1989-10-11d2t06.flac:7a294e1cbb34264e15064b8ab75a28e0
gd1989-10-11d3t01.flac:4a59c4a89e645051b156638503474d6d
gd1989-10-11d3t02.flac:19bde5c0586c99f4ef6ca1ca9f32f8e4
gd1989-10-11d3t03.flac:37cd2141ffd1aee8a5ac1a95497419bf
gd1989-10-11d3t04.flac:1d1d1338f8e5eb1435c50e99aa93137e
gd1989-10-11d3t05.flac:26c5ab0f0ac430c6658c042613f8233f
gd1989-10-11d3t06.flac:c7f074249672fb2cb91689e2856f7b01
gd1989-10-11d3t07.flac:685a935dd7f5e64b6f58667694677cf5
gd1989-10-11d3t08.flac:6a5f9013ca1913dc1c8068546779c51d
flac-md5
1e97678db7f1987592804fda00091754 *gd1989-10-11d1t01.flac
6a0457f6f175bc581aeea0b4bcc5a642 *gd1989-10-11d1t02.flac
61ade377534c24571ebd4fbd8d645fcb *gd1989-10-11d1t03.flac
0d9a5e6716eb62e57e25b1d540cb75d9 *gd1989-10-11d1t04.flac
e6c86a12bcbd3aba2e547519e5948282 *gd1989-10-11d1t05.flac
df0a59a798b3875b312db352c78f666c *gd1989-10-11d1t06.flac
ebf84ab66b872e460c3fc25f2585811c *gd1989-10-11d1t07.flac
2007e071db2d343752f82297bdabcdfb *gd1989-10-11d1t08.flac
a2436e767f5422f02cc440f6f1745c4d *gd1989-10-11d1t09.flac
2335bd5cf82521d1307e58a4907e2a28 *gd1989-10-11d1t10.flac
bd433917473606746d7e10e2a6afdfab *gd1989-10-11d2t01.flac
7ac1cc71e9e9884a1dab247d71ffa2f8 *gd1989-10-11d2t02.flac
3cf5d2bdfc35e86a05b16aefc40bfce6 *gd1989-10-11d2t03.flac
1f1807d1423a4b848d2032f1028f408d *gd1989-10-11d2t04.flac
e443b441402867f26dca98a6ad07e8fe *gd1989-10-11d2t05.flac
70da863d0c01238be005e1f1a26ff107 *gd1989-10-11d2t06.flac
d67a8c5de3622d0ce04f6f1acf297ff3 *gd1989-10-11d3t01.flac
d4cfbe65d3b9c15e259ad2d8b90da68e *gd1989-10-11d3t02.flac
0fac6cb09222a0c91894a783b6360d25 *gd1989-10-11d3t03.flac
e262e55ef41e5c02b33696ef8529eed6 *gd1989-10-11d3t04.flac
eab648fde44584be0c18cc928d956ee4 *gd1989-10-11d3t05.flac
9b486dc504f104cded6bb8c1f96113b6 *gd1989-10-11d3t06.flac
21d8a83a78ce898d976919bc32d0f86b *gd1989-10-11d3t07.flac
3dc4757da0f412aac393d77fa87800f6 *gd1989-10-11d3t08.flac

Comments
Add Comment
Other Sources (comments)
Master Soundboard DAT >... (6) Sbd> Cas(m)> Dat> ZA2/PC>... (0) flac16; Recording... (0) flac16; matrix of... (0) flac16; Taper: M.... (0) flac24; Source:... (0) flac16/48kHz;... (0)
Date User Comment