Browse Collections Artists Sources   Search Dates

Add Show    List Management    Help


Grateful Dead 10/11/80
Warfield Theater, San Francisco, CA
Comments Add Comment    Source Collectors    Add to Collection    Add to Want List    History
Source # 89615 Other Sources
Entered by Matt Vernon
Checksums flac-md5 , ffp
Disc Counts 2 / 3
Media Size
Date Circulated
Date Added
01/21/2008
01/22/2008
Source Summary flac16; Recorded by Ron Ellner. Source: Master Cassette > Nakamichi 700s > Sony TC D-5M; Location: FOB either on the floor or 1st row balcony; 1st Generation copy to Teac Reel to Reel; Transfer: Pioneer RT-701 Reel to Reel > Soundblaster Soundcard > Soundforge > CD; CD Extraction: EAC > TLH > FLAC level 8; Recorded and archived to Reels by Ron Ellner, the master cassettes were stolen. Transfer: Reels to PC by Mike Marino; CD Extraction and seeded by Bill Koucky; Green Mountain Bros. January 2008. 
  Archive
Source Information - Download Text | Download Zip
Grateful Dead
Warfield Theater
San Francisco, CA
October 11, 1980 Saturday

Source: Master Cassette > Nakamichi 700s > Sony TC D-5M
Location: FOB either on the floor or 1st row balcony
1st Generation copy to Teac Reel to Reel
Transfer: Pioneer RT-701 Reel to Reel > Soundblaster Soundcard > Soundforge > CD
CD Extraction: EAC > TLH > FLAC level 8
Recorded and archived to Reels by Ron Ellner, the master cassettes were stolen.
Transfer: Reels to PC by Mike Marino
CD Extraction and seeded by Bill Koucky
Green Mountain Bros. January 2008

Disc 1          46:35
Acoustic Set:

1. Dire Wolf
2. Dark Hollow
3. Rosalie McFall
4. Cassidy
5. Deep Elem Blues
6. Monkey & The Engineer
7. China Doll
8. Heaven Help The Fool
9. Oh Babe It Ain't No Lie >
10. Ripple


Disc 2         70:21
1st Electric Set:

1. Feel Like A Stranger
2. They Love Each Other
3. Mama Tried >
4. Mexicali Blues
5. Loser
6. Passenger
7. Ramble On Rose
8. Looks Like Rain
9. Althea
10. Lost Sailor >
11. Saint Of Circumstance

Disc 3          79:08
2nd Electric Set

1. China Cat Sunflower >
2. I Know You Rider
3. Let It Grow >
4. Drums >
5. Space >
6. Not Fade Away * >
7. Wharf Rat* >
8. Goin' Down The Road Feelin' Bad* >
9. One More Saturday Night*
Encore:
10. Brokedown Palace

*w/ John Cippolina

Notes: Dropouts were removed from the beginnings of nearly all tracks after ripping to wav from the CD source.


SHNTOOL OUTPUT:
    length     expanded size   cdr  WAVE problems filename
     3:41.49       39099692    ---   --   ---xx   gd1980-10-11d1t01.flac
     3:56.43       41731580    ---   --   ---xx   gd1980-10-11d1t02.flac
     2:51.34       30244412    ---   --   ---xx   gd1980-10-11d1t03.flac
     5:51.55       62045804    ---   --   ---xx   gd1980-10-11d1t04.flac
     4:55.62       52183868    ---   --   ---xx   gd1980-10-11d1t05.flac
     2:49.30       29882204    ---   --   ---xx   gd1980-10-11d1t06.flac
     5:10.59       54822812    ---   --   ---xx   gd1980-10-11d1t07.flac
     6:18.50       66796844    ---   --   ---xx   gd1980-10-11d1t08.flac
     6:30.08       68814860    ---   --   ---xx   gd1980-10-11d1t09.flac
     4:27.32       47174108    ---   --   ---xx   gd1980-10-11d1t10.flac
     8:33.00       90493244    ---   --   ---xx   gd1980-10-11d2t01.flac
     7:13.29       76449452    ---   --   ---xx   gd1980-10-11d2t02.flac
     2:35.22       27393788    ---   --   ---xx   gd1980-10-11d2t03.flac
     4:20.04       45873452    ---   --   ---xx   gd1980-10-11d2t04.flac
     7:36.38       80527820    ---   --   ---xx   gd1980-10-11d2t05.flac
     4:52.36       51593516    ---   --   ---xx   gd1980-10-11d2t06.flac
     7:10.17       75892028    ---   --   ---xx   gd1980-10-11d2t07.flac
     7:40.72       81313388    ---   --   ---xx   gd1980-10-11d2t08.flac
     7:43.36       81757916    ---   --   ---xx   gd1980-10-11d2t09.flac
     6:16.39       66418172    ---   --   ---xx   gd1980-10-11d2t10.flac
     6:19.19       66900332    ---   --   ---xx   gd1980-10-11d2t11.flac
     5:37.28       59512700    ---   --   ---xx   gd1980-10-11d3t01.flac
     5:29.47       58146188    ---   --   ---xx   gd1980-10-11d3t02.flac
    12:42.40      134510924    ---   --   ---xx   gd1980-10-11d3t03.flac
    10:51.56      114968156    ---   --   ---xx   gd1980-10-11d3t04.flac
     8:38.55       91504604    ---   --   ---xx   gd1980-10-11d3t05.flac
     9:45.24      103250492    ---   --   ---xx   gd1980-10-11d3t06.flac
     8:41.67       92062028    ---   --   ---xx   gd1980-10-11d3t07.flac
     6:04.63       64357820    ---   --   ---xx   gd1980-10-11d3t08.flac
     5:07.04       54164252    ---   --   ---xx   gd1980-10-11d3t09.flac
     6:03.14       64066172    ---   --   ---xx   gd1980-10-11d3t10.flac
   195:57.07     2073952628 B                     (totals for 31 files, 0.5812 overall compression ratio)
Show Checksums
flac-md5
69025e4330f62ae25523f91ba7d3a93f *gd1980-10-11d1t01.flac
910e0edbcda7462ec906f177975feece *gd1980-10-11d1t02.flac
77dc0d8657e9684a5b89f31c468d4e1d *gd1980-10-11d1t03.flac
f92dfa052bd57867a234eeb9b8f3776c *gd1980-10-11d1t04.flac
8c3c4b3b9056e8babbdc476a689697a3 *gd1980-10-11d1t05.flac
8a2f31dc4373585ded19640fd5adf0b8 *gd1980-10-11d1t06.flac
2078eac288d0e7b9c31c7e8e480c6fec *gd1980-10-11d1t07.flac
0a0575aec83a2c1a740a9ec6f8609a1a *gd1980-10-11d1t08.flac
78ef0884a190d4e00617e05f77a071ba *gd1980-10-11d1t09.flac
c41b1d8e9430e69d287022d155e86e70 *gd1980-10-11d1t10.flac
cd77613d249f594178b8272931c56ef9 *gd1980-10-11d2t01.flac
7783ed744a634c0adedaf7b25b456260 *gd1980-10-11d2t02.flac
645a95fbd85b197a6365d38f66c2cf8b *gd1980-10-11d2t03.flac
2b9d6218cf132832286a7fc4bef08104 *gd1980-10-11d2t04.flac
6d811d369806cb5a57475812821b01cf *gd1980-10-11d2t05.flac
c79d59690718a33eb87132ffcb39de21 *gd1980-10-11d2t06.flac
7c6b3a129b273f558bbbef7cf71ba7d0 *gd1980-10-11d2t07.flac
d9b30ed1887fb5d2dfed23d3222e6541 *gd1980-10-11d2t08.flac
7dddbdfcce6b313f6f0a6d6ffb51a55d *gd1980-10-11d2t09.flac
e4baf1959964fce37d5cba615ced756f *gd1980-10-11d2t10.flac
a42e51e4169ae875e0143b508ac8c0f8 *gd1980-10-11d2t11.flac
5f5aa69643efffc185a74b7ceda48409 *gd1980-10-11d3t01.flac
3b7da6353ecc26fa272e1b4f835b9309 *gd1980-10-11d3t02.flac
016186424b3c2d26d9d380b64992930f *gd1980-10-11d3t03.flac
caec6227be2bbb6d04343f36498f1fbc *gd1980-10-11d3t04.flac
ea5e7ee4a7f899fc5cc2c069d2cef38b *gd1980-10-11d3t05.flac
b3df030c4d15aceb4045571dd8241f08 *gd1980-10-11d3t06.flac
c9059a86314ac49b1df5f618127d47d6 *gd1980-10-11d3t07.flac
d926c18337711b845970469ae2c585d0 *gd1980-10-11d3t08.flac
6e7c9179390bd372bc38d4b65af7cb3d *gd1980-10-11d3t09.flac
6447aed178843ac0e2aef9930021ef97 *gd1980-10-11d3t10.flac
ffp
gd1980-10-11d1t01.flac:04f8f0ff0b84a1d2ebde2c25191de560
gd1980-10-11d1t02.flac:466b2f91a47ca0b25804e43405883da4
gd1980-10-11d1t03.flac:22a4312f1c3439b7f2f6ed41d7a849cb
gd1980-10-11d1t04.flac:6e26f893837bae73c58fb971ba11a375
gd1980-10-11d1t05.flac:3c65f59e193611f01357ec0a48e3967e
gd1980-10-11d1t06.flac:306689afbdb666d2fd38185bd607d3a8
gd1980-10-11d1t07.flac:6851d0675a6da8cf7c358f73c15729a7
gd1980-10-11d1t08.flac:098c4a6853a7b999ec4fff59f1d787f0
gd1980-10-11d1t09.flac:9793c6d2c88fe9eee0db963ef34c89c7
gd1980-10-11d1t10.flac:5e1a6099a51513e5bedd6d4b8024ad0f
gd1980-10-11d2t01.flac:aaea53c79ea20f616445adda8dc805cb
gd1980-10-11d2t02.flac:49d32f20f203a9cb1b2a0a311cb22140
gd1980-10-11d2t03.flac:f01b486ecaac20e0e882dbfb3bb6fe48
gd1980-10-11d2t04.flac:295102cde436fb544ff15e370a8ffab0
gd1980-10-11d2t05.flac:abb96c6df7b1f4784b7fbc8cce277a8e
gd1980-10-11d2t06.flac:41892c513a850fe4a0d7ec7e7cd2b50a
gd1980-10-11d2t07.flac:3e9c9291cac79e8e1a7a18703963350a
gd1980-10-11d2t08.flac:6f7b9b0551daf68cf60e8a4c625393f6
gd1980-10-11d2t09.flac:e5d16acb7332510e6b0609f4a65bd165
gd1980-10-11d2t10.flac:f6e1a22a6fd2d4aab3872cdb9f1add26
gd1980-10-11d2t11.flac:4ec8518c4ff2acc89fc3cb0cf5f182fd
gd1980-10-11d3t01.flac:5a1e4923728d865779970dcd23871b0c
gd1980-10-11d3t02.flac:81ac8e2f260a9af6a309005439ebc481
gd1980-10-11d3t03.flac:97c397cf745e2673b9d9b72880058b0d
gd1980-10-11d3t04.flac:24c95259e655c35acd2e772ac1ee34e5
gd1980-10-11d3t05.flac:93e4a91faf6c4c9cd0d89ad9f5b393cb
gd1980-10-11d3t06.flac:13662c73d632942a8f98b218b769f823
gd1980-10-11d3t07.flac:667e7cfc74360108c163fefb52905e76
gd1980-10-11d3t08.flac:75c1ba95de5b4bd6d02bb4ad5d4f6720
gd1980-10-11d3t09.flac:72863c7976b236c9efddf442f33e62ff
gd1980-10-11d3t10.flac:5f0676277a4bcb2236e98709eae5c506

Comments
Add Comment
Other Sources (comments)
acoustic set; SBD> Reel>... (1) shn set from (0) SBD:MC >? >CDR >EAC >cool... (4) flac16; Acoustic Set... (0) flac16/48kHz; Master... (0) flac24; Source Info:... (0)
Date User Comment