Browse Collections Artists Sources   Search Dates

Add Show    List Management    Help


Grateful Dead 10/12/89
Meadowlands Arena, East Rutherford, NJ
Comments Add Comment    Source Collectors    Add to Collection    Add to Want List    History
Source # 89620 Other Sources
Entered by Gary Field
Checksums ffp , flac-md5
Disc Counts 2 / 3
Media Size
Date Circulated
Date Added
01/22/2008
01/22/2008
Source Summary flac16; AUD: Sennheiser MD-421's > patched thru one D5 > Sony TC-D5M > Maxell MX-90's, with no Dolby. Mics on 8-foot stand, front row of OTS. Transfer: MAC > Nakamichi DR-8 (no Dolby) > Audiophile 2496 analog-in > Soundforge > CD-Wave > TLH > FLAC. Taped and transferred by Andrew F.  
  Archive
Source Information - Download Text | Download Zip
GRATEFUL DEAD
Brendan Byrne Arena
East Rutherford NJ
10-12-1989

Disc One (62:18)

01 Hell in a Bucket >
02 Sugaree
03 Blow Away
04 Tennessee Jed
05 Queen Jane Approximately
06 Birdsong
07 Jack Straw
-- set break --

Disc Two (46:19)

01 crowd & tuning
02 Hey Pocky Way >
03 Cumberland Blues >
04 Looks Like Rain >
05 He's Gone >
06 Drums >
07 Space// (tape flip)

Disc Three (43:47)

01 Space >
02 The Other One >
03 Wharf Rat >
04 Sugar Magnolia
-- encore --
05 crowd & tuning
06 Brokedown Palace

AUD: Sennheiser MD-421's > patched thru one D5 > Sony TC-D5M > Maxell
MX-90's, with no Dolby. Mics on 8-foot stand, front row of OTS.

Transfer: MAC > Nakamichi DR-8 (no Dolby) > Audiophile 2496 analog-in >
Soundforge > CD-Wave > TLH > FLAC. Taped and transferred by Andrew F.

Notes:
- Two-disc burn option: end D1 with Cumberland, start D2 with LLRain.
- Soundforge used for fades, clean-up around tape flips.
- TLH used for SBE-OK, FLAC compression, and checksums.

* In Memory of Adam Katz *

shntool

    length     expanded size   cdr  WAVE problems filename
     6:39.51       70503596    ---   --   ---xx   gd1989-10-12d1t01.flac
     9:58.19      105531932    ---   --   ---xx   gd1989-10-12d1t02.flac
    10:02.66      106348076    ---   --   ---xx   gd1989-10-12d1t03.flac
     8:31.00       90140444    ---   --   ---xx   gd1989-10-12d1t04.flac
     6:37.23       70084940    ---   --   ---xx   gd1989-10-12d1t05.flac
    14:33.09      154018412    ---   --   ---xx   gd1989-10-12d1t06.flac
     5:56.43       62899580    ---   --   ---xx   gd1989-10-12d1t07.flac
     1:45.54       18649052    ---   --   ---xx   gd1989-10-12d2t01.flac
     6:47.14       71827772    ---   --   ---xx   gd1989-10-12d2t02.flac
     5:52.55       62222204    ---   --   ---xx   gd1989-10-12d2t03.flac
     8:22.12       88581068    ---   --   ---xx   gd1989-10-12d2t04.flac
    12:04.29      127781852    ---   --   ---xx   gd1989-10-12d2t05.flac
     8:01.25       84907244    ---   --   ---xx   gd1989-10-12d2t06.flac
     3:25.57       36296108    ---   --   ---xx   gd1989-10-12d2t07.flac
     9:45.71      103361036    ---   --   ---xx   gd1989-10-12d3t01.flac
     8:12.07       86805308    ---   --   ---xx   gd1989-10-12d3t02.flac
    12:04.60      127854764    ---   --   ---xx   gd1989-10-12d3t03.flac
     7:50.73       83079740    ---   --   ---xx   gd1989-10-12d3t04.flac
     0:39.43        6980780    ---   --   ---xx   gd1989-10-12d3t05.flac
     5:13.59       55352012    ---   --   ---xx   gd1989-10-12d3t06.flac
   152:25.20     1613225920 B                     (totals for 20 files, 0.5682 overall compression ratio)

There were no sector boundary errors.
Show Checksums
ffp
gd1989-10-12d1t01.flac:f0d5ae177810ab74e1b10cab3979a886
gd1989-10-12d1t02.flac:1667525f9d0ab4b9e9c27abc32ed2154
gd1989-10-12d1t03.flac:6df10d3ce6339bd5a609b2c5f12f98d1
gd1989-10-12d1t04.flac:dc4b291390772b67027da9c3587fe69d
gd1989-10-12d1t05.flac:26e9204001c59ea1a1fe05066a4ad443
gd1989-10-12d1t06.flac:fa65dc8d93f562f7bc535660c6b3746e
gd1989-10-12d1t07.flac:4f2f184ac3ecf1e52db68d5e5e251418
gd1989-10-12d2t01.flac:c3eaf09402a79875854cfdb759497a81
gd1989-10-12d2t02.flac:23b333c7bf6075aef8ff30bf6e1d1472
gd1989-10-12d2t03.flac:50e4bed15ff3aa1628375b2f379e556d
gd1989-10-12d2t04.flac:bbb71b2c8ce4d9332a3571ebfbe0bc18
gd1989-10-12d2t05.flac:391c97a0bf3d334ea3164326bb8aa188
gd1989-10-12d2t06.flac:14ad6ca9d60602d42366b4e85ed74d5b
gd1989-10-12d2t07.flac:22b866245e46fa47ef200d7d257d5e31
gd1989-10-12d3t01.flac:a58a2f7d8414115edc116f1789fbf56e
gd1989-10-12d3t02.flac:c8f93b70c0bf87f4fe6df8eb83ed31c9
gd1989-10-12d3t03.flac:7c17393543104a2d1b75bed22ca343f5
gd1989-10-12d3t04.flac:7e067dc7b36f366cda9659a95ef011b3
gd1989-10-12d3t05.flac:a3a2733e1dcc966014d39008a569f436
gd1989-10-12d3t06.flac:463c7b931e4ede446dd711e88aa40d54
flac-md5
4bc674880141980247633606ce74e639 *gd1989-10-12d1t01.flac
28a5396b0f5627955877ee62414ab22e *gd1989-10-12d1t02.flac
829b0d139cde19979fd0a0c490081acc *gd1989-10-12d1t03.flac
a849acd2f50b21351202c8ba3802fefd *gd1989-10-12d1t04.flac
33e5ca1c323f37fccb830ca723e3ca5a *gd1989-10-12d1t05.flac
525f6b2d6371a3ac6bf32a40af9322d7 *gd1989-10-12d1t06.flac
f55315f759f37fc0430dbc5c95559964 *gd1989-10-12d1t07.flac
70134791ed09bc497d87acf5b6816766 *gd1989-10-12d2t01.flac
409091e569e960270f39c4a0ace2923f *gd1989-10-12d2t02.flac
1d934088d0e103a55cba23eb7682a00f *gd1989-10-12d2t03.flac
97730421ec34fe7fbe357e7026f28a00 *gd1989-10-12d2t04.flac
70fcdca5c3c218d5ea9b139e0257129c *gd1989-10-12d2t05.flac
3ee4c1a3a12120313ff062acdcdce496 *gd1989-10-12d2t06.flac
9408a15f33cd9437852087269f6e0452 *gd1989-10-12d2t07.flac
246fe6bc3a2730e009bfd3307e3362e8 *gd1989-10-12d3t01.flac
6c93c4078c827432c6cc8df945ee9005 *gd1989-10-12d3t02.flac
e43738a0f9b373eeb612b34dae436026 *gd1989-10-12d3t03.flac
662aa56cde8ac846faf8718541540762 *gd1989-10-12d3t04.flac
95526cfba305b9a0fee466b731d4405d *gd1989-10-12d3t05.flac
b34e59087be20e99d511ea2ddc0b15a9 *gd1989-10-12d3t06.flac

Comments
Add Comment
Other Sources (comments)
Sbd> Cas(m)> Dat> ZA2/PC>... (0) Lineage: SBD -> Cm -> Dat... (0) flac16; Recording... (0) flac16; matrix of... (0) flac16; Master... (0) flac24; Master... (0) flac16; Taper: M.... (0) flac24; Master... (0) flac16; Master... (0) flac16/48kHz;... (0) flac16/48kHz; Source... (0)
Date User Comment