Browse Collections Artists Sources   Search Dates

Add Show    List Management    Help


Grateful Dead 10/14/80
Warfield Theater, San Francisco, CA
Comments Add Comment    Source Collectors    Add to Collection    Add to Want List    History
Source # 89632 Other Sources
Entered by Matt Vernon
Checksums flac-md5 , ffp
Disc Counts 2 / 3
Media Size
Date Circulated
Date Added
01/23/1980
01/23/2008
Source Summary flac16; Recorded by Ron Ellner. Source: Master Cassette > Nakamichi 700s > Sony TC D-5M; Location: FOB either on the floor or 1st row balcony; 1st Generation copy to Teac Reel to Reel; Transfer: Pioneer RT-701 Reel to Reel > Soundblaster Soundcard > Soundforge > CD; CD Extraction: EAC > WaveLab (edits) > TLH > FLAC level 8; Recorded and archived to Reels by Ron Ellner, the master cassettes were stolen. Transfer: Reels to PC by Mike Marino; CD Extraction and edits by Bill Koucky. Green Mountain Bros. January 2008. 
  Archive
Source Information - Download Text | Download Zip
Grateful Dead  
Warfield Theater
San Francisco, CA
October 14, 1980 Tuesday

Source: Master Cassette > Nakamichi 700s > Sony TC D-5M
Location: FOB either on the floor or 1st row balcony
1st Generation copy to Teac Reel to Reel
Transfer: Pioneer RT-701 Reel to Reel > Soundblaster Soundcard > Soundforge > CD
CD Extraction: EAC > WaveLab (edits) > TLH > FLAC level 8
Recorded and archived to Reels by Ron Ellner, the master cassettes were stolen.
Transfer: Reels to PC by Mike Marino
CD Extraction and edits by Bill Koucky
Green Mountain Bros. January 2008

Disc 1          53:57
Acoustic Set:
1. Dire Wolf
2. Dark Hollow
3. It Must Have Been The Roses
4. Cassidy
5. I've Been All Around This World
6. Monkey & The Engineer
7. China Doll
8. Heaven Help The Fool
9. Bird Song >
10. Ripple

Disc 2         74:54
1st Electric Set:

1. Alabama Getaway >
2. Greatest Story Ever Told
3. Friend Of The Devil
4. Me & My Uncle >
5. Mexicali Blues
6. Candyman
7. Little Red Rooster
8. Tennessee Jed
9. Let It Grow >
10. The Wheel >
11. Music Never Stopped

Disc 3          57:19
2nd Electric Set:

1. Scarlet Begonias >
2. Fire On The Mountain
3. Estimated Prophet >
4. Terrapin Station >
5. Playin' In The Band >
6. Drums >

Disc 4          50:52
1. Space >
2. I Need A Miracle >
3. Uncle John's Band >
4. Morning Dew >
5. Playin' In The Band >
6. Good Lovin'
Encore:
7. U.S. Blues
8. Brokedown Palace  

Notes: Dropouts were removed from the beginnings of nearly all tracks after ripping to wav from the CD source.  There were source CDs with fades during CD changes. Fades between Mexicali Blues and Candyman, between Estimated and Terrapin and before the encores were spliced together to keep the integrity of this show intact. There is a 1 second dropout in d3t06 at ~8:46. This is the only complete version of this epic show that circulates.


SHNTOOL OUTPUT:
    length     expanded size   cdr  WAVE problems filename
     3:54.00       41277644    ---   --   ---xx   gd1980-10-14d1t01.flac
     4:32.68       48140780    ---   --   ---xx   gd1980-10-14d1t02.flac
     6:40.20       70607084    ---   --   ---xx   gd1980-10-14d1t03.flac
     6:01.68       63840380    ---   --   ---xx   gd1980-10-14d1t04.flac
     4:42.62       49890668    ---   --   ---xx   gd1980-10-14d1t05.flac
     2:52.56       30472556    ---   --   ---xx   gd1980-10-14d1t06.flac
     5:36.17       59310428    ---   --   ---xx   gd1980-10-14d1t07.flac
     6:40.38       70649420    ---   --   ---xx   gd1980-10-14d1t08.flac
     8:15.17       87358028    ---   --   ---xx   gd1980-10-14d1t09.flac
     4:38.49       49154492    ---   --   ---xx   gd1980-10-14d1t10.flac
     4:26.03       46929500    ---   --   ---xx   gd1980-10-14d2t01.flac
     4:16.43       45259580    ---   --   ---xx   gd1980-10-14d2t02.flac
     9:27.37      100105868    ---   --   ---xx   gd1980-10-14d2t03.flac
     3:06.65       32963324    ---   --   ---xx   gd1980-10-14d2t04.flac
     4:37.20       48909884    ---   --   ---xx   gd1980-10-14d2t05.flac
     7:37.29       80683052    ---   --   ---xx   gd1980-10-14d2t06.flac
     8:55.54       94501052    ---   --   ---xx   gd1980-10-14d2t07.flac
     8:50.67       93649628    ---   --   ---xx   gd1980-10-14d2t08.flac
    11:03.20      117000284    ---   --   ---xx   gd1980-10-14d2t09.flac
     5:05.70       53966684    ---   --   ---xx   gd1980-10-14d2t10.flac
     7:24.61       78465116    ---   --   ---xx   gd1980-10-14d2t11.flac
    10:01.53      106141100    ---   --   ---xx   gd1980-10-14d3t01.flac
     9:03.41       95881676    ---   --   ---xx   gd1980-10-14d3t02.flac
     9:24.71       99656636    ---   --   ---xx   gd1980-10-14d3t03.flac
    11:56.23      126356540    ---   --   ---xx   gd1980-10-14d3t04.flac
     7:03.32       74692508    ---   --   ---xx   gd1980-10-14d3t05.flac
     9:47.63      103695020    ---   --   ---xx   gd1980-10-14d3t06.flac
     5:57.31       63047756    ---   --   ---xx   gd1980-10-14d4t01.flac
     3:42.54       39287852    ---   --   ---xx   gd1980-10-14d4t02.flac
     6:43.22       71140988    ---   --   ---xx   gd1980-10-14d4t03.flac
     9:57.37      105397868    ---   --   ---xx   gd1980-10-14d4t04.flac
     2:49.37       29898668    ---   --   ---xx   gd1980-10-14d4t05.flac
     8:32.29       90385052    ---   --   ---xx   gd1980-10-14d4t06.flac
     7:11.69       76190732    ---   --   ---xx   gd1980-10-14d4t07.flac
     5:55.60       62763164    ---   --   ---xx   gd1980-10-14d4t08.flac
   236:55.61     2507671012 B                     (totals for 35 files, 0.5704 overall compression ratio)
Show Checksums
flac-md5
b752dda03e4be1e8ff9e5929461862da *gd1980-10-14d1t01.flac
00ecf8301f367d8171eb55fe12f19f51 *gd1980-10-14d1t02.flac
379ae3bcf2d025a825664c5743f3cad2 *gd1980-10-14d1t03.flac
abde97a25fe201bcfe1c32485a1cfc3b *gd1980-10-14d1t04.flac
fffc6e16049848cb496ad8368a54497b *gd1980-10-14d1t05.flac
fe5935e71884c293e827d871473eded3 *gd1980-10-14d1t06.flac
af81ddcaaf2d684684f95f221a5114df *gd1980-10-14d1t07.flac
98db9ac120f1bd3ac5bbcdca57200933 *gd1980-10-14d1t08.flac
9b34714cf0c38fedc75f3d7e1ce31bf3 *gd1980-10-14d1t09.flac
f60ff24cc31b63e3477a0e0678ebac5d *gd1980-10-14d1t10.flac
98bfd13697a3dfb3d1e41f557b070368 *gd1980-10-14d2t01.flac
9ac1144f8322365dfdc1b2d32f0788f6 *gd1980-10-14d2t02.flac
01a9b803dc9236253aeaeb01312bad15 *gd1980-10-14d2t03.flac
5bd38eae8c6d640f954c48694b838201 *gd1980-10-14d2t04.flac
21da62d808cf6b1cc5f8a1991ed68c60 *gd1980-10-14d2t05.flac
2c3523d7c8e8fe9fe398c3c39c9d82e3 *gd1980-10-14d2t06.flac
dca023d20c777554a9f2ec67c1fbe67d *gd1980-10-14d2t07.flac
6acf938a21b0ba7c41cc0ac5f97cfdbd *gd1980-10-14d2t08.flac
53c341118e006d8cb04dd6b20d9b5056 *gd1980-10-14d2t09.flac
3cab5d419193cddd467632332ece94e2 *gd1980-10-14d2t10.flac
a46e8ea28a9f75855261edf99584d655 *gd1980-10-14d2t11.flac
32aa0db47024368900d9068909aa6800 *gd1980-10-14d3t01.flac
2fc5766fcfb59960289f58663e984b60 *gd1980-10-14d3t02.flac
c6a4c6906dafdb15877dce91f2095044 *gd1980-10-14d3t03.flac
e2e57d8e1d528db0d338184774f4ef88 *gd1980-10-14d3t04.flac
03ade1ab32bc5ee358936253c039f0f2 *gd1980-10-14d3t05.flac
e9a81579a3a22b9b9fde3da38c23f443 *gd1980-10-14d3t06.flac
df8b33be1ead83a64976928c061302c7 *gd1980-10-14d4t01.flac
724e387e4cf2568338e1e99329a88b6a *gd1980-10-14d4t02.flac
df9fc9e055f4eab65a61684f08142c3d *gd1980-10-14d4t03.flac
8367b49ada0867b4e0ddc4672341b0ac *gd1980-10-14d4t04.flac
2c1583ec195c57c7399e8b88596857a7 *gd1980-10-14d4t05.flac
79c09fa0dbbf1dfef383d1c377cb7ec3 *gd1980-10-14d4t06.flac
e503881d415db22a343e944311e855f1 *gd1980-10-14d4t07.flac
acafb773d946af3deddeb2124f3d14d7 *gd1980-10-14d4t08.flac
ffp
gd1980-10-14d1t01.flac:7060dea557a7c9b8c3732eef86380c8e
gd1980-10-14d1t02.flac:b82ca96ba8a0ff3c244932826aa366d0
gd1980-10-14d1t03.flac:a7104d85929201c8d17ae35b43b0e130
gd1980-10-14d1t04.flac:2c8a174639263f7190cbda83a5e2ab0f
gd1980-10-14d1t05.flac:c6ee53afbc84ec0406eebaa2de9e1de1
gd1980-10-14d1t06.flac:77e30aa0e46c583ac23b70ede0a3ebdf
gd1980-10-14d1t07.flac:7ac481ec43d2b3a04862fe6851076be4
gd1980-10-14d1t08.flac:1ce228ed375aae1f293d2ac0bab5fbb0
gd1980-10-14d1t09.flac:a14da11bffbe7336d9c02a32bef98196
gd1980-10-14d1t10.flac:7df75740d60eaf81dbd6e82ecb4f3de9
gd1980-10-14d2t01.flac:46a978d83462734013c74ab60aa2589d
gd1980-10-14d2t02.flac:5b67d5d55741ff32d72d98ba3cf923d5
gd1980-10-14d2t03.flac:ce50ec32b613305fb1e349e4b3d66e05
gd1980-10-14d2t04.flac:c75b3c015246b0599209fedc7049a477
gd1980-10-14d2t05.flac:80a3b8ca981e211f03b3a1698be75d1b
gd1980-10-14d2t06.flac:4f49691e6a5e2fc427ac77104ca29f3f
gd1980-10-14d2t07.flac:c574a9c0c4d7aaf7ba4db292441ed5ee
gd1980-10-14d2t08.flac:0955d872dedde35393223a49f88b1832
gd1980-10-14d2t09.flac:cb9affd9d01bd43ee21f9d90b8b4f0de
gd1980-10-14d2t10.flac:3d4d98ce17fab1f2bd530109e1533e81
gd1980-10-14d2t11.flac:81c058a403064aa53298487be1c026bc
gd1980-10-14d3t01.flac:b7a68dabcb77eeef1b29e13e9787e488
gd1980-10-14d3t02.flac:b0a633e30d7f95fc0d3a184301503b5e
gd1980-10-14d3t03.flac:8bbd379d4f20e5c7887d85f064d35a3d
gd1980-10-14d3t04.flac:c379874353c4262ea1c4e4aecfe1e999
gd1980-10-14d3t05.flac:03caf3100283c25fc41b0d1de5427033
gd1980-10-14d3t06.flac:4f03c8041ebda1d02ee80137ca029a1b
gd1980-10-14d4t01.flac:2a393474b2875803fd223845df3205df
gd1980-10-14d4t02.flac:c3375ade6a36a0d87f7cff681833b53f
gd1980-10-14d4t03.flac:ee3f75e13f3d0fb7a5e01c3428bd6602
gd1980-10-14d4t04.flac:d2a242de6cd62bc7c0ba7c5cf71b0b7d
gd1980-10-14d4t05.flac:c6d41db8989808ebb47c8a3f63ac62ab
gd1980-10-14d4t06.flac:9484e43f1c5bee31027a83da8307aa2f
gd1980-10-14d4t07.flac:75b56bb986ca8f2974157afef151be35
gd1980-10-14d4t08.flac:e918685b726beb24703a2587f4767db4

Comments
Add Comment
Other Sources (comments)
SBD> MR> DAT> CDR> EAC>... (5) Set 1 and encores: unknown... (9) SBD > Reel > Sony TCD5 >... (0) flac16; Sets 2 and... (0) flac16/48Khz; Set 2... (0)
Date User Comment