Browse Collections Artists Sources   Search Dates

Add Show    List Management    Help


Phish 11/21/97
Hampton Coliseum, Hampton, VA
Comments Add Comment    Source Collectors    Add to Collection    Add to Want List    History
Source # 89645 Other Sources
Entered by Jason Sobel
Checksums all_ffp , all_wav_md5
Disc Counts 2 / 2
Media Size
Date Circulated
Date Added
01/25/2008
01/25/2008
Source Summary (FOB) Schoeps mk4 > kc5 > cmc5 > Sonosax SX-M2 > Sony D3 (@ 48 kHz); Tascam DA-20MKII > Tascam HD-P2 > WaveLab 5.01b (fades, patch) > r8brain v1.9 (48 to 44.1 kHz) > CD Wave v1.96.1 > FLAC v1.2.1 (Level 8); Taped by Dan, Boris, and Brian; Transferred by Jason Sobel 
Source Information - Download Text | Download Zip
Phish
November 21, 1997
Hampton Coliseum
Hampton, VA

source:
(FOB) Schoeps mk4 > kc5 > cmc5 > Sonosax SX-M2 > Sony D3 (@ 48 kHz)

transfer:
Tascam DA-20MKII > Tascam HD-P2 > CF card > usb 2.0 > pc > WaveLab 5.01b (fades, patch) > r8brain v1.9 (resample to 44.1 kHz) > CD Wave v1.96.1 > FLAC v1.2.1 (Level 8)

FLAC tags added with metaflac v1.2.1

recorded by Dan, Boris, and Brian
transferred by Jason Sobel ([email protected])
seeded January 25, 2008

notes:
The original 48 kHz .wav files from the DAT transfer have been archived, and are available upon request.
Big thanks to Eliot for letting me borrow the master DATs!

Disc 1 - [72:10]
Set I
01 - [00:56] - intro
02 - [16:59] - Emotional Rescue *
03 - [13:44] - Split Open and Melt
04 - [03:30] - Beauty of My Dreams
05 - [04:45] - Dogs Stole Things
06 - [09:45] - Punch You in the Eye ->
07 - [03:21] - Lawn Boy
08 - [09:11] - Chalk Dust Torture
09 - [10:00] - Prince Caspian

Disc 2 - [73:31]
Set II
01 - [00:37] - intro
02 - [14:45] - Ghost ->
03 - [25:54] - AC/DC Bag ->
04 - [12:21] - Slave to the Traffic Light
05 - [06:40] - Loving Cup
06 - [02:38] - encore break
07 - [10:37] - Guyute

* debut

patch notes:
right at the beginning of "Punch You in the Eye",
there was a very small sport of digi-noise on Eliot's DAT.
I used the following source to patch over the spot with digi-noise:

(FOB) Schoeps CMBI/mk4 > HHb mic pres > HHb DAT (@ 48 kHz)
recorded by Barry the Blade
http://db.etree.org/shn/87303

Barry's source was used from [00:02] to [00:04]
The patch is barely noticeable.

---------------------------------------------------------------------------------

SHNtool output:

    length     expanded size   cdr  WAVE problems filename
     0:55.56        9833756    ---   --   ---xx   ph1997-11-21d1t01.flac
    16:58.52      179697548    ---   --   ---xx   ph1997-11-21d1t02.flac
    13:43.68      145337180    ---   --   ---xx   ph1997-11-21d1t03.flac
     3:29.63       37015820    ---   --   ---xx   ph1997-11-21d1t04.flac
     4:44.71       50264636    ---   --   ---xx   ph1997-11-21d1t05.flac
     9:44.65      103170524    ---   --   ---xx   ph1997-11-21d1t06.flac
     3:20.61       35423516    ---   --   ---xx   ph1997-11-21d1t07.flac
     9:11.01       97198796    ---   --   ---xx   ph1997-11-21d1t08.flac
    10:00.13      105870620    ---   --   ---xx   ph1997-11-21d1t09.flac
     0:37.26        6587996    ---   --   ---xx   ph1997-11-21d2t01.flac
    14:44.59      156076412    ---   --   ---xx   ph1997-11-21d2t02.flac
    25:53.68      274109180    ---   --   ---xx   ph1997-11-21d2t03.flac
    12:20.52      130658348    ---   --   ---xx   ph1997-11-21d2t04.flac
     6:39.67       70541228    ---   --   ---xx   ph1997-11-21d2t05.flac
     2:37.37       27781868    ---   --   ---xx   ph1997-11-21d2t06.flac
    10:36.66      112345676    ---   --   ---xx   ph1997-11-21d2t07.flac
   145:41.00     1541913104 B                     (totals for 16 files, 0.5069 overall compression ratio)
Show Checksums
all_ffp
ph1997-11-21d1t01.flac:5f3bc5542e8f9e0c0c79410465d6225d
ph1997-11-21d1t02.flac:80ca45f44faa88e8e6f9e0e1abcea4df
ph1997-11-21d1t03.flac:c1ddaffbe4e4e9533818734d9f1888b8
ph1997-11-21d1t04.flac:f59f348296d75d5e71fe5a95a5f107fc
ph1997-11-21d1t05.flac:faa52c48ec189dd9f573f5f8904eb082
ph1997-11-21d1t06.flac:32e18c81e4f3b2476e0a4bcd05fbfe90
ph1997-11-21d1t07.flac:190771ab223645df2cf90490c131e36b
ph1997-11-21d1t08.flac:42e44e66c6220017d5b207c646e95547
ph1997-11-21d1t09.flac:11ebe05c31cfb274226ab7d56b42e2c2
ph1997-11-21d2t01.flac:e945653e4280fd1f7a28d3c3c574935f
ph1997-11-21d2t02.flac:8797e55d21cf55a5caba1e2b836d463f
ph1997-11-21d2t03.flac:35c49010f229b33ea1e292a1fb4ca2bd
ph1997-11-21d2t04.flac:00f0cea55645792b2ab2b7e3854e8bd7
ph1997-11-21d2t05.flac:2430bc71659ead4485de7e10e7658d0c
ph1997-11-21d2t06.flac:bfecf907653c8f0a1a24533bc87bb91e
ph1997-11-21d2t07.flac:c7d44634e963f829686e1a70eb742473
all_wav_md5
569710e4694b013a61f68e2d7fbd093c *ph1997-11-21d1t01.wav
976167515359b6b8a50775fe6fedcc32 *ph1997-11-21d1t02.wav
e6afa1c4e5b34eab50cba5dd53eccc08 *ph1997-11-21d1t03.wav
87b96482e7f1626b4e397a473c095420 *ph1997-11-21d1t04.wav
a90e34c636f86df63e669db10fab8201 *ph1997-11-21d1t05.wav
5850e918eab8e9a959d63590b192b5c1 *ph1997-11-21d1t06.wav
2c649a2084bf398a5250645d89683a2e *ph1997-11-21d1t07.wav
efb7c61bddc4cf7cef5b4a7d1ed4bba8 *ph1997-11-21d1t08.wav
6caf9dab43d3980628151ea6d73c26ce *ph1997-11-21d1t09.wav
ff7f4bfcf846de6f452079f7099faad3 *ph1997-11-21d2t01.wav
eca88806e27b602a32d4251f42b03e4b *ph1997-11-21d2t02.wav
47500c7546f68fe45bf532c9f52e4cf3 *ph1997-11-21d2t03.wav
19b73c7deaace1cefe5a4bf3b91ac423 *ph1997-11-21d2t04.wav
e92b2505ea8e601e9361fdb18ee9abe1 *ph1997-11-21d2t05.wav
7f3934b9597083e4760b63b30f4151c9 *ph1997-11-21d2t06.wav
de7526e77eff177e2bd9170fae535076 *ph1997-11-21d2t07.wav

Comments
Add Comment
Other Sources (comments)
pcp tree; Schoeps CMC6/mk41... (1) Schoeps CMC6/mk41 > Sonosax... (0) Microtec Geffel m210 (ORTF)... (3) AKG 460/ck61 > AKG b18 >... (0) FOB Schoeps CMBI/mk4 > HHb... (0) (set 2 only) Neumann U87 ->... (0) Neumann u87 (cardiod) >... (0) Neumann KMi84 > Aerco MP-2... (0) flac16; AKG 483 >... (0) flac16 48kHz... (0) flac16 48kHz Schoeps... (0) flac16 48kHz Audio... (0)
Date User Comment
01/28/2008 jasonsobel note: taper information corrected and updated after this recording was initially distributed via bt.etree.