Browse Collections Artists Sources   Search Dates

Add Show    List Management    Help


Grateful Dead 10/14/89
Meadowlands Arena, East Rutherford, NJ
Comments Add Comment    Source Collectors    Add to Collection    Add to Want List    History
Source # 89655 Other Sources
Entered by Gary Field
Checksums ffp , flac-md5
Disc Counts 2 / 2
Media Size
Date Circulated
Date Added
01/26/2008
01/26/2008
Source Summary flac16; AUD: Nakamichi CM300's w/CP4 shotguns > patched thru 1 or 2 decks > Sony TC-D5M > Maxell MX-90's, with no Dolby. Mics on stand in front row of OTS. Transfer: MAC > Nakamichi DR-8 (no Dolby) > Audiophile 2496 analog-in > Soundforge > CD-Wave > TLH > FLAC. Taped and transferred by Andrew F. 
  Archive
Source Information - Download Text | Download Zip
GRATEFUL DEAD
Brendan Byrne Arena
East Rutherford NJ
10-14-1989

Disc One (63:02)

01 crowd & tuning
02 Touch of Grey >
03 Minglewood Blues
04 We Can Run
05 Friend of the Devil
06 Mama Tried >
07 Mexicali Blues
08 Help on the Way > Slipknot >
09 Franklin's Tower
-- set break --

Disc Two (79:13)

01 crowd & tuning
02 Foolish Heart >
03 Women Are Smarter >
04 Scarlet Begonias >
05 Truckin' >
06 Jam >
07 Drums >
08 Space >
09 China Doll >
10 One More Saturday Night
-- encore --
11 crowd & tuning
12 Black Muddy River

AUD: Nakamichi CM300's w/CP4 shotguns > patched thru 1 or 2 decks >
Sony TC-D5M > Maxell MX-90's, with no Dolby. Mics on stand in front
row of OTS.

Transfer: MAC > Nakamichi DR-8 (no Dolby) > Audiophile 2496 analog-in >
Soundforge > CD-Wave > TLH > FLAC. Taped and transferred by Andrew F.

Notes:
- ShnID-88087 patches cover the following: All the first crowd track,
first 52 seconds of Touch of Grey, and 3:41 > 4:04 of Drums.
- Soundforge used for fades, add patches, adjust levels.
- TLH used for SBE-OK, FLAC compression, and checksums.

* In Memory of Adam Katz *


md5

480077c41eae8dfac41129a327db6731 *gd1989-10-14d1t01.flac
0a451b7b498104ab1e0171fef41492b5 *gd1989-10-14d1t02.flac
94a0447cbf252459dd1cb8cf7ac74ace *gd1989-10-14d1t03.flac
5365248abf84f9bd7d7c29550a7f5650 *gd1989-10-14d1t04.flac
1a2f83e3ea7ce2834f186aba2155b8cc *gd1989-10-14d1t05.flac
7664bb13c278d042a32dd5d1a1ebc8fd *gd1989-10-14d1t06.flac
52a27d9b000ef53628a0cb77749951b0 *gd1989-10-14d1t07.flac
86c8740c82077ea626d82aa6973ef9d8 *gd1989-10-14d1t08.flac
6005eea40a49b555b50329054accc33d *gd1989-10-14d1t09.flac
6d44a345d1f51f1fdd5aa134db866750 *gd1989-10-14d2t01.flac
b97bdb2132ebf2507db12803c83d0fc5 *gd1989-10-14d2t02.flac
c84a483c030c07bc546ed957915ab616 *gd1989-10-14d2t03.flac
d62d853fab0b4fd2903d2758d07d8417 *gd1989-10-14d2t04.flac
2ef4aef8ba6dc6cc1dd464919fd894c0 *gd1989-10-14d2t05.flac
f1f5da91dca1bad07273f539e7848690 *gd1989-10-14d2t06.flac
3ffd4e062d8d075de64c5458e155bd89 *gd1989-10-14d2t07.flac
b0f1c8deba5f758a72061254aa3995c4 *gd1989-10-14d2t08.flac
89ef8e79cffc55a829c1adba6358e6f4 *gd1989-10-14d2t09.flac
ca1f8df0920957c0806f21ec26207774 *gd1989-10-14d2t10.flac
69bbe17c835f194b0a6545dc01ee0bdc *gd1989-10-14d2t11.flac
757cf1dedd13a82d6a255cb46a73f8b9 *gd1989-10-14d2t12.flac

ffp

gd1989-10-14d1t01.flac:d7b31713c45e19fa1e7a7b3de9525bb2
gd1989-10-14d1t02.flac:0e928872ea827cda27121fb33c4403e6
gd1989-10-14d1t03.flac:69c35641d5a4cc39ec5f2da96543e34c
gd1989-10-14d1t04.flac:0a4975deba70f2d4f80a66efe253968a
gd1989-10-14d1t05.flac:743e32335b66133ba53e029b51068c60
gd1989-10-14d1t06.flac:d9853cc22e824db1a6cd7d90e7de4b2c
gd1989-10-14d1t07.flac:5e39e7f9b18f5a8b158acff8ee9f449a
gd1989-10-14d1t08.flac:9a70ac1269ef4b7c22cacf64a3749715
gd1989-10-14d1t09.flac:6934a315de17c8cc9c4a34c5a6b36fc1
gd1989-10-14d2t01.flac:83b46e0bb1d29fc9082e5cbba0b440f6
gd1989-10-14d2t02.flac:e6249e17ae02a4e1d95309fa687ea25e
gd1989-10-14d2t03.flac:88e4ed5a0dc45ba17aad75cedb606908
gd1989-10-14d2t04.flac:f4cfbc8479fe2c22fbd2c50b8f054575
gd1989-10-14d2t05.flac:bf5e1710bdc989a6fda2345d47fadb8b
gd1989-10-14d2t06.flac:13cb605d4805c1c69a9d1e8c750d61b9
gd1989-10-14d2t07.flac:a109748d2596eed85624c67943a5d5cf
gd1989-10-14d2t08.flac:4988699ea3e8c60ef013fc1c324eda54
gd1989-10-14d2t09.flac:1e951ca6df361dfab2fa936a2a998dfb
gd1989-10-14d2t10.flac:20678d4a2bea8c2d788f405aa33233c9
gd1989-10-14d2t11.flac:185b42fb8782980a8d88229e783808fa
gd1989-10-14d2t12.flac:1f61a6225cbe23dc598bf2f912597c6a

shntool

    length     expanded size   cdr  WAVE problems filename
     3:32.33       37474460    ---   --   ---xx   gd1989-10-14d1t01.flac
     6:21.69       67370732    ---   --   ---xx   gd1989-10-14d1t02.flac
    10:03.60      106510364    ---   --   ---xx   gd1989-10-14d1t03.flac
     6:47.66       71950076    ---   --   ---xx   gd1989-10-14d1t04.flac
     9:45.32      103269308    ---   --   ---xx   gd1989-10-14d1t05.flac
     2:35.46       27450236    ---   --   ---xx   gd1989-10-14d1t06.flac
     6:01.15       63715724    ---   --   ---xx   gd1989-10-14d1t07.flac
     9:11.67       97354028    ---   --   ---xx   gd1989-10-14d1t08.flac
     8:42.45       92186684    ---   --   ---xx   gd1989-10-14d1t09.flac
     0:48.54        8594252    ---   --   ---xx   gd1989-10-14d2t01.flac
     7:29.49       79318892    ---   --   ---xx   gd1989-10-14d2t02.flac
    10:19.24      109248092    ---   --   ---xx   gd1989-10-14d2t03.flac
    12:42.07      134433308    ---   --   ---xx   gd1989-10-14d2t04.flac
     6:48.65       72124124    ---   --   ---xx   gd1989-10-14d2t05.flac
     4:05.00       43218044    ---   --   ---xx   gd1989-10-14d2t06.flac
     6:41.24       70792892    ---   --   ---xx   gd1989-10-14d2t07.flac
    10:06.21      106947836    ---   --   ---xx   gd1989-10-14d2t08.flac
     7:21.60       77933564    ---   --   ---xx   gd1989-10-14d2t09.flac
     5:28.08       57878060    ---   --   ---xx   gd1989-10-14d2t10.flac
     0:40.05        7067804    ---   --   ---xx   gd1989-10-14d2t11.flac
     6:42.04       70922252    ---   --   ---xx   gd1989-10-14d2t12.flac
   142:16.04     1505760732 B                     (totals for 21 files, 0.5685 overall compression ratio)

There were no sector boundary errors.
Show Checksums
ffp
gd1989-10-14d1t01.flac:d7b31713c45e19fa1e7a7b3de9525bb2
gd1989-10-14d1t02.flac:0e928872ea827cda27121fb33c4403e6
gd1989-10-14d1t03.flac:69c35641d5a4cc39ec5f2da96543e34c
gd1989-10-14d1t04.flac:0a4975deba70f2d4f80a66efe253968a
gd1989-10-14d1t05.flac:743e32335b66133ba53e029b51068c60
gd1989-10-14d1t06.flac:d9853cc22e824db1a6cd7d90e7de4b2c
gd1989-10-14d1t07.flac:5e39e7f9b18f5a8b158acff8ee9f449a
gd1989-10-14d1t08.flac:9a70ac1269ef4b7c22cacf64a3749715
gd1989-10-14d1t09.flac:6934a315de17c8cc9c4a34c5a6b36fc1
gd1989-10-14d2t01.flac:83b46e0bb1d29fc9082e5cbba0b440f6
gd1989-10-14d2t02.flac:e6249e17ae02a4e1d95309fa687ea25e
gd1989-10-14d2t03.flac:88e4ed5a0dc45ba17aad75cedb606908
gd1989-10-14d2t04.flac:f4cfbc8479fe2c22fbd2c50b8f054575
gd1989-10-14d2t05.flac:bf5e1710bdc989a6fda2345d47fadb8b
gd1989-10-14d2t06.flac:13cb605d4805c1c69a9d1e8c750d61b9
gd1989-10-14d2t07.flac:a109748d2596eed85624c67943a5d5cf
gd1989-10-14d2t08.flac:4988699ea3e8c60ef013fc1c324eda54
gd1989-10-14d2t09.flac:1e951ca6df361dfab2fa936a2a998dfb
gd1989-10-14d2t10.flac:20678d4a2bea8c2d788f405aa33233c9
gd1989-10-14d2t11.flac:185b42fb8782980a8d88229e783808fa
gd1989-10-14d2t12.flac:1f61a6225cbe23dc598bf2f912597c6a
flac-md5
480077c41eae8dfac41129a327db6731 *gd1989-10-14d1t01.flac
0a451b7b498104ab1e0171fef41492b5 *gd1989-10-14d1t02.flac
94a0447cbf252459dd1cb8cf7ac74ace *gd1989-10-14d1t03.flac
5365248abf84f9bd7d7c29550a7f5650 *gd1989-10-14d1t04.flac
1a2f83e3ea7ce2834f186aba2155b8cc *gd1989-10-14d1t05.flac
7664bb13c278d042a32dd5d1a1ebc8fd *gd1989-10-14d1t06.flac
52a27d9b000ef53628a0cb77749951b0 *gd1989-10-14d1t07.flac
86c8740c82077ea626d82aa6973ef9d8 *gd1989-10-14d1t08.flac
6005eea40a49b555b50329054accc33d *gd1989-10-14d1t09.flac
6d44a345d1f51f1fdd5aa134db866750 *gd1989-10-14d2t01.flac
b97bdb2132ebf2507db12803c83d0fc5 *gd1989-10-14d2t02.flac
c84a483c030c07bc546ed957915ab616 *gd1989-10-14d2t03.flac
d62d853fab0b4fd2903d2758d07d8417 *gd1989-10-14d2t04.flac
2ef4aef8ba6dc6cc1dd464919fd894c0 *gd1989-10-14d2t05.flac
f1f5da91dca1bad07273f539e7848690 *gd1989-10-14d2t06.flac
3ffd4e062d8d075de64c5458e155bd89 *gd1989-10-14d2t07.flac
b0f1c8deba5f758a72061254aa3995c4 *gd1989-10-14d2t08.flac
89ef8e79cffc55a829c1adba6358e6f4 *gd1989-10-14d2t09.flac
ca1f8df0920957c0806f21ec26207774 *gd1989-10-14d2t10.flac
69bbe17c835f194b0a6545dc01ee0bdc *gd1989-10-14d2t11.flac
757cf1dedd13a82d6a255cb46a73f8b9 *gd1989-10-14d2t12.flac

Comments
Add Comment
Other Sources (comments)
Sbd> Cas(m)> Dat> ZA2/PC>... (1) Recording Info: SBD ->... (0) flac16; Recording... (0) flac16; Sennheiser... (1) flac16; matrix of... (0) flac16; Sennheiser... (2) flac16; Master: AKG... (0) flac24; Master... (0) flac16; Master... (0) flac16; Set 2... (0) flac16; Taper: M.... (0) flac16/48kHz; Ted... (0) flac24; Recording... (0) flac16/48kHz; Source... (0)
Date User Comment