Browse Collections Artists Sources   Search Dates

Add Show    List Management    Help


Phish 12/03/97
The Spectrum, Philadelphia, PA
Comments Add Comment    Source Collectors    Add to Collection    Add to Want List    History
Source # 89656 Other Sources
Entered by Jason Sobel
Checksums all_ffp
Disc Counts 2 / 3
Media Size
Date Circulated
Date Added
01/26/2008
01/26/2008
Source Summary AKG 414 > Oade Preamp > Tascam DA-P1 (16bit/44.1kHz); Tascam DA20 mkII > Tascam FW-1804 > Wavelab > CdWave (tracking) > Flac (Level 8); Transfered by rowjimmy 
Source Information - Download Text | Download Zip
Phish
1997-12-03
Corestates Spectrum
Philadelphia, PA

Source:
AKG 414 > Oade Preamp > Tascam DA-P1 (16bit/44.1kHz)
Taped by: Unknown. Thanks to you and all the other tapers.

Transfer:
DAT > Tascam DA20 mkII > coax > Tascam FW-1804 > firewire >
Wavelab* > wav > CdWave (tracking) > Flac (lvl 8)
* Split Sets & Applied fades. Removed DC Offset. Applied patch to set 2 (see below.)
Transfered by: rowjimmy (http://www.rowjimmy.com) 2007-01-21


Disc 1-
Set 1:
01. Crowd
02. Punch You in the Eye
03. My Soul
04. Drowned
05. The Old Home Place
06. Gumbo >
07. 2001 >
08. You Enjoy Myself

Disc 2-
Set 2:
01. Crowd
02. David Bowie >
03. Possum >
04. Prince Caspian

Disc 3-
01. Frankenstein
02. Harry Hood

Encore:
03. Crossroads


Notes

* Drowned included a Couldn't Stand the Weather jam.
* David Bowie included "Simpsons" language and a "Take Me out to the Ballgame" quote during the intro.
* Possum included a long stop/start jam.


Setlist & notes from Wikipaug.net:
http://www.wikipaug.net/index.php/December_3%2C_1997

Patch Information:
Dropout in Harry Hood patched with 1.323seconds
Source:
Schoeps CMC641 > Apogee AD-1000 @ 44.1
Front row center, OTS by Stan Lobitz
http://db.etree.org/shninfo_detail.php?shnid=8572



FLAC Fingerprint:
ph1997-12-03d1t01.flac:c405dbe599b06436b46cf6076e219cae
ph1997-12-03d1t02.flac:a929126649a85cb37584461b7bce165b
ph1997-12-03d1t03.flac:3d3536ae5aebc2b6c575ca699085327e
ph1997-12-03d1t04.flac:f74e4e3c1f93b100ba674ad7c445ca4d
ph1997-12-03d1t05.flac:67b15a77fd17a258effa1530aede6c28
ph1997-12-03d1t06.flac:76062308cadb53969852c1b4094b63f2
ph1997-12-03d1t07.flac:2ef9496e3ffd2eda7541bd31ea72d5c6
ph1997-12-03d1t08.flac:e891ea317c57ebf06b3e97200483078b
ph1997-12-03d2t01.flac:1f3d394eb649b38638b0f3b7efbfc1a2
ph1997-12-03d2t02.flac:a4144e115d6189f7fe52159ac777e8f6
ph1997-12-03d2t03.flac:2c49cebf48e0a90334cbf7377cd06786
ph1997-12-03d2t04.flac:618f0cc4f0e3db5a6cc8eb2b2d10023d
ph1997-12-03d3t01.flac:472f8e217f0b6912b4cb25f223739a64
ph1997-12-03d3t02.flac:6e76f67f5ba2674870b4a9e90695a6cb
ph1997-12-03d3t03.flac:ae6d53631f2416da0f52787220011fff



ShnTool Output:
    length     expanded size   cdr  WAVE problems filename
     0:56.68       10038380    ---   --   ---xx   ph1997-12-03d1t01.flac
     9:12.01       97375196    ---   --   ---xx   ph1997-12-03d1t02.flac
     7:07.24       75379292    ---   --   ---xx   ph1997-12-03d1t03.flac
    16:35.38      175607420    ---   --   ---xx   ph1997-12-03d1t04.flac
     3:34.16       37787276    ---   --   ---xx   ph1997-12-03d1t05.flac
     9:57.12      105339068    ---   --   ---xx   ph1997-12-03d1t06.flac
     9:49.43      104000780    ---   --   ---xx   ph1997-12-03d1t07.flac
    20:58.07      221927708    ---   --   ---xx   ph1997-12-03d1t08.flac
     0:23.15        4092524    ---   --   ---xx   ph1997-12-03d2t01.flac
    27:12.17      287924828    ---   --   ---xx   ph1997-12-03d2t02.flac
    20:52.48      220965740    ---   --   ---xx   ph1997-12-03d2t03.flac
     9:53.65      104758124    ---   --   ---xx   ph1997-12-03d2t04.flac
     5:10.40       54778124    ---   --   ---xx   ph1997-12-03d3t01.flac
    18:05.58      191530460    ---   --   ---xx   ph1997-12-03d3t02.flac
     5:38.00       59623244    ---   --   ---xx   ph1997-12-03d3t03.flac
   165:27.02     1751128164 B                     (totals for 15 files, 0.5700 overall compression ratio)

There were no sector boundary errors.
Show Checksums
all_ffp
ph1997-12-03d1t01.flac:c405dbe599b06436b46cf6076e219cae
ph1997-12-03d1t02.flac:a929126649a85cb37584461b7bce165b
ph1997-12-03d1t03.flac:3d3536ae5aebc2b6c575ca699085327e
ph1997-12-03d1t04.flac:f74e4e3c1f93b100ba674ad7c445ca4d
ph1997-12-03d1t05.flac:67b15a77fd17a258effa1530aede6c28
ph1997-12-03d1t06.flac:76062308cadb53969852c1b4094b63f2
ph1997-12-03d1t07.flac:2ef9496e3ffd2eda7541bd31ea72d5c6
ph1997-12-03d1t08.flac:e891ea317c57ebf06b3e97200483078b
ph1997-12-03d2t01.flac:1f3d394eb649b38638b0f3b7efbfc1a2
ph1997-12-03d2t02.flac:a4144e115d6189f7fe52159ac777e8f6
ph1997-12-03d2t03.flac:2c49cebf48e0a90334cbf7377cd06786
ph1997-12-03d2t04.flac:618f0cc4f0e3db5a6cc8eb2b2d10023d
ph1997-12-03d3t01.flac:472f8e217f0b6912b4cb25f223739a64
ph1997-12-03d3t02.flac:6e76f67f5ba2674870b4a9e90695a6cb
ph1997-12-03d3t03.flac:ae6d53631f2416da0f52787220011fff

Comments
Add Comment
Other Sources (comments)
updated source info:... (0) Schoeps CMC641 > Apogee... (2) 2x Senheiser 441's + 1x... (1) flac16; B+K 4021 ->... (1) flac16; Schoeps... (0) flac16, 48kHz... (0)
Date User Comment