Browse Collections Artists Sources   Search Dates

Add Show    List Management    Help


Phish 11/22/97
Hampton Coliseum, Hampton, VA
Comments Add Comment    Source Collectors    Add to Collection    Add to Want List    History
Source # 89665 Other Sources
Entered by Jason Sobel
Checksums all_ffp , all_wav_md5
Disc Counts 2 / 2
Media Size
Date Circulated
Date Added
01/27/2008
01/27/2008
Source Summary (FOB) Schoeps mk4 > kc5 > cmc5 > Sonosax SX-M2 > Sony D3 (@ 48 kHz); Tascam DA-20MKII > Tascam HD-P2 > WaveLab 5.01b (fades) > r8brain v1.9 (48 to 44.1 kHz) > CD Wave v1.96.1 > FLAC v1.2.1 (Level 8); Taped by Dan, Boris, and Brian; Transferred by Jason Sobel 
Source Information - Download Text | Download Zip
Phish
November 22, 1997
Hampton Coliseum
Hampton, VA

source:
(FOB) Schoeps mk4 > kc5 > cmc5 > Sonosax SX-M2 > Sony D3 (@ 48 kHz)

transfer:
Tascam DA-20MKII > Tascam HD-P2 > CF card > usb 2.0 > pc > WaveLab 5.01b (fades) > r8brain v1.9 (resample to 44.1 kHz) > CD Wave v1.96.1 > FLAC v1.2.1 (Level 8)

FLAC tags added with metaflac v1.2.1

recorded by Dan, Boris, and Brian
transferred by Jason Sobel ([email protected])
seeded January 27, 2008

notes:
The original 48 kHz .wav files from the DAT transfer have been archived, and are available upon request.
Big thanks to Eliot Byron for letting me borrow his DATs!

Disc 1 - [74:41]
Set I
01 - [16:33] - Mike's Song ->
02 - [04:34] - I Am Hydrogen >
03 - [14:56] - Weekapaug Groove
04 - [18:02] - Harry Hood
05 - [03:08] - Train Song
06 - [07:03] - Billy Breathes
07 - [04:48] - Frankenstein
08 - [05:36] - Izabella

Disc 2 - [75:02]
Set II
01 - [01:51] - intro
02 - [24:17] - Halley's Comet ->
03 - [11:40] - Tweezer ->
04 - [06:58] - Black-Eyed Katy >
05 - [07:53] - Piper
06 - [12:34] - Run Like An Antelope
07 - [02:13] - encore break
08 - [03:50] - Bouncing Around the Room
09 - [03:46] - Tweezer Reprise

---------------------------------------------------------------------------------

SHNtool output:

    length     expanded size   cdr  WAVE problems filename
    16:32.70      175153484    ---   --   ---xx   ph1997-11-22d1t01.flac
     4:34.30       48404204    ---   --   ---xx   ph1997-11-22d1t02.flac
    14:56.28      158120300    ---   --   ---xx   ph1997-11-22d1t03.flac
    18:01.56      190820156    ---   --   ---xx   ph1997-11-22d1t04.flac
     3:08.35       33245564    ---   --   ---xx   ph1997-11-22d1t05.flac
     7:02.61       74584316    ---   --   ---xx   ph1997-11-22d1t06.flac
     4:48.16       50840876    ---   --   ---xx   ph1997-11-22d1t07.flac
     5:36.04       59279852    ---   --   ---xx   ph1997-11-22d1t08.flac
     1:50.49       19519292    ---   --   ---xx   ph1997-11-22d2t01.flac
    24:16.41      256934876    ---   --   ---xx   ph1997-11-22d2t02.flac
    11:39.46      123411836    ---   --   ---xx   ph1997-11-22d2t03.flac
     6:58.24       73791692    ---   --   ---xx   ph1997-11-22d2t04.flac
     7:53.08       83456060    ---   --   ---xx   ph1997-11-22d2t05.flac
    12:34.33      133083260    ---   --   ---xx   ph1997-11-22d2t06.flac
     2:12.71       23451836    ---   --   ---xx   ph1997-11-22d2t07.flac
     3:50.28       40637900    ---   --   ---xx   ph1997-11-22d2t08.flac
     3:46.00       39866444    ---   --   ---xx   ph1997-11-22d2t09.flac
   149:43.00     1584601948 B                     (totals for 17 files, 0.5117 overall compression ratio)
Show Checksums
all_ffp
ph1997-11-22d1t01.flac:5ed31d31a8362f182a9d55ddb7b32758
ph1997-11-22d1t02.flac:21dcb9a07f3de1fc56619f57a2d59c6d
ph1997-11-22d1t03.flac:07b99e4fd6b05caa4d60771c1c8af6c3
ph1997-11-22d1t04.flac:9431fc95f4df69cddb49d3f8f1cdd3e7
ph1997-11-22d1t05.flac:307ff0d21b073c7a6d7fbd55eafd12b2
ph1997-11-22d1t06.flac:6ebbb7cfe27e3e0748b118dc4e6eab50
ph1997-11-22d1t07.flac:0ac6f16c8f632aaa07ec342219a08ec3
ph1997-11-22d1t08.flac:7aa43c8fc9295341f749ff7819aeb73f
ph1997-11-22d2t01.flac:5e75eafe5343dd55511e078bec1a7768
ph1997-11-22d2t02.flac:78be9cc24dfd07dcf74da93c6d1c7456
ph1997-11-22d2t03.flac:9de8dca0d230ede50f6b63a8a9fe703a
ph1997-11-22d2t04.flac:bbc897aa9dd30c702d945b98fa816fb6
ph1997-11-22d2t05.flac:cbe2daec596ab73b180c416c6ff05715
ph1997-11-22d2t06.flac:79d622f108fa28e8e78a7bc763913cea
ph1997-11-22d2t07.flac:84b6795e4023d0ddd6f321511b93c52c
ph1997-11-22d2t08.flac:e0ffc672cd0132b947876943dd202280
ph1997-11-22d2t09.flac:74a06045ea10796f885b55af92d2606e
all_wav_md5
22114303a5c1563aa1052843b5b1b24f *ph1997-11-22d1t01.wav
ecc841b20edf4024cc5b633e90c60707 *ph1997-11-22d1t02.wav
881114964e8e3b1b702ff1c862c66251 *ph1997-11-22d1t03.wav
7a02a5daeabc1b5839763fdd5adedadf *ph1997-11-22d1t04.wav
d281a0d5feaefffd687781820a806886 *ph1997-11-22d1t05.wav
85b295e3fc31bd4ee2b52e9ed468f458 *ph1997-11-22d1t06.wav
906e13d68f2025cb58f84d0044c0fd58 *ph1997-11-22d1t07.wav
acc6ad3eacb4e4287fc2f996d80394b7 *ph1997-11-22d1t08.wav
d0103db616080b7299868ca74252ac3d *ph1997-11-22d2t01.wav
4875331edf5f131ae3237704e1d74b32 *ph1997-11-22d2t02.wav
ee48b831d9df616f8b55b655e36dc27d *ph1997-11-22d2t03.wav
c4da3c35ead47372491bd5a2199ff1e5 *ph1997-11-22d2t04.wav
5060beae6389219376ced6e3a1f40349 *ph1997-11-22d2t05.wav
864e773683ee7fe7b9c8bfea610c9d39 *ph1997-11-22d2t06.wav
47d3b3d65a14cb2f773220b55f3ecf98 *ph1997-11-22d2t07.wav
505f754bf6023f8d8b31326dd2e6c36d *ph1997-11-22d2t08.wav
02cdb6841d7837f0912f18e177230af8 *ph1997-11-22d2t09.wav

Comments
Add Comment
Other Sources (comments)
pcp tree; Schoeps... (6) Schoeps CMC641 > Sonosax... (1) Microtec Geffel m210 (ORTF)... (4) Neumann km184 > DAT; Sony... (2) FOB Schoeps mk8+mk21H >... (0) AKG 460b/ck61 > AKG b18 >... (0) (FOB) Schoeps CMBI/mk4 >... (0) set 2 only: Neumann U87s ->... (0) Schoeps cmc6/mk41's >... (0) set 1 only; Neumann KMi84 >... (0) flac16; AKG 483 >... (0) flac16; AKG... (0) flac16; AKG... (0) flac16 48kHz Schoeps... (0) flac16 32khz Audio... (0)
Date User Comment