Browse Collections Artists Sources   Search Dates

Add Show    List Management    Help


Grateful Dead 10/15/89
Meadowlands Arena, East Rutherford, NJ
Comments Add Comment    Source Collectors    Add to Collection    Add to Want List    History
Source # 89674 Other Sources
Entered by Gary Field
Checksums ffp , flac-md5
Disc Counts 2 / 2
Media Size
Date Circulated
Date Added
01/27/2008
01/27/2008
Source Summary flac16; AUD: Sennheiser MD-421's > patched thru one D5 > Sony TC-D5M > Maxell MX-90's, with no Dolby. Mics on 8-foot stand, front row of OTS. Transfer: MAC > Nakamichi DR-8 (no Dolby) > Audiophile 2496 analog-in > Soundforge > CD-Wave > TLH > FLAC. Taped and transferred by Andrew F. 
  Archive
Source Information - Download Text | Download Zip
GRATEFUL DEAD
Brendan Byrne Arena
East Rutherford NJ
10-15-1989

Disc One (75:37)

01 crowd & tuning
02 Let the Good Times Roll
03 Iko Iko
04 Walkin' Blues
05 Far From Me
06 Row Jimmy
07 Victim or the Crime >
08 //Standing on the Moon
-- set break --
09 crowd & tuning, samson false start >
10 Samson & Delilah
11 Just a Little Light
12 Crazy Fingers

Disc Two (76:51)

01 Estimated Prophet >
02 Eyes of the World >
03 Ja//m (Jerry with drummers) >
04 Drums >
05 Space >
06 Stella Blue >
07 Throwing Stones >
08 Not Fade Away  
-- encore --
09 NFA Reprise >
10 Box of Rain

AUD: Sennheiser MD-421's > patched thru one D5 > Sony TC-D5M > Maxell
MX-90's, with no Dolby. Mics on 8-foot stand, front row of OTS.

Transfer: MAC > Nakamichi DR-8 (no Dolby) > Audiophile 2496 analog-in >
Soundforge > CD-Wave > TLH > FLAC. Taped and transferred by Andrew F.

Notes:
- SOTM cuts-in due to tape-flip, crossfaded together.
- Glitch at 0:19 in SOTM.
- Disc break is seamless.
- Tape-flip at 2:39.160 in Jam, mended together.
- Soundforge used for fades, clean-up around tape flips, adjust levels.
- TLH used for SBE-OK, FLAC compression, and checksums.

* In Memory of Adam Katz *

shntool

    length     expanded size   cdr  WAVE problems filename
     1:25.34       15074012    ---   --   ---xx   gd1989-10-15d1t01.flac
     3:47.42       40141628    ---   --   ---xx   gd1989-10-15d1t02.flac
     7:34.47       80196188    ---   --   ---xx   gd1989-10-15d1t03.flac
     7:11.18       76070780    ---   --   ---xx   gd1989-10-15d1t04.flac
     5:25.03       57337100    ---   --   ---xx   gd1989-10-15d1t05.flac
    10:54.12      115393868    ---   --   ---xx   gd1989-10-15d1t06.flac
     8:05.46       85662236    ---   --   ---xx   gd1989-10-15d1t07.flac
     7:55.40       83884124    ---   --   ---xx   gd1989-10-15d1t08.flac
     2:55.52       30992348    ---   --   ---xx   gd1989-10-15d1t09.flac
     7:13.03       76388300    ---   --   ---xx   gd1989-10-15d1t10.flac
     4:38.01       49041596    ---   --   ---xx   gd1989-10-15d1t11.flac
     8:31.25       90199244    ---   --   ---xx   gd1989-10-15d1t12.flac
    12:37.16      133572476    ---   --   ---xx   gd1989-10-15d2t01.flac
     8:13.52       87087548    ---   --   ---xx   gd1989-10-15d2t02.flac
     3:26.20       36385484    ---   --   ---xx   gd1989-10-15d2t03.flac
     8:01.10       84871964    ---   --   ---xx   gd1989-10-15d2t04.flac
    10:31.50      111426044    ---   --   ---xx   gd1989-10-15d2t05.flac
     8:31.74       90314492    ---   --   ---xx   gd1989-10-15d2t06.flac
     9:02.69       95771132    ---   --   ---xx   gd1989-10-15d2t07.flac
     8:30.21       90013436    ---   --   ---xx   gd1989-10-15d2t08.flac
     2:55.33       30947660    ---   --   ---xx   gd1989-10-15d2t09.flac
     5:00.56       53051756    ---   --   ---xx   gd1989-10-15d2t10.flac
   152:28.49     1613823416 B                     (totals for 22 files, 0.5735 overall compression ratio)

There were no sector boundary errors.
Show Checksums
ffp
gd1989-10-15d1t01.flac:b15ef0e005f3ba15b6d4ac7c1faf94d8
gd1989-10-15d1t02.flac:f7ab1995d208f489d48a5e9e9aba19b8
gd1989-10-15d1t03.flac:84b20b023612abc6b72a39ec3d9a0b6d
gd1989-10-15d1t04.flac:5c917f1e8d8708b0dad03bf5b011c5d6
gd1989-10-15d1t05.flac:c871fee23cbc1903786123691086f0da
gd1989-10-15d1t06.flac:3d5b2993222d11d51531290447e86d64
gd1989-10-15d1t07.flac:8a14501b64df55a129ecea604cc9c524
gd1989-10-15d1t08.flac:5e4c54c5481665608ee1d7112b72aea0
gd1989-10-15d1t09.flac:83415634c22e04feb090bcb2bcdcbf87
gd1989-10-15d1t10.flac:c58a67c134d1e56e4132b2988a0330cd
gd1989-10-15d1t11.flac:37598ab61cb054bdf933af63f351228e
gd1989-10-15d1t12.flac:7ae6fc84aae385e3a84a9e0ffb4d6014
gd1989-10-15d2t01.flac:1e13895880de06f62e705e1888329ac6
gd1989-10-15d2t02.flac:ca6c37fb24f170421315041ffea11803
gd1989-10-15d2t03.flac:396c046c33a3473df7e6ffb9acf5cb6e
gd1989-10-15d2t04.flac:406f4d55e393331ec7fa9143b28f0bb4
gd1989-10-15d2t05.flac:f567c48890e3b2ee9d664e7912fef5c7
gd1989-10-15d2t06.flac:f075878bff199d0a6ee8338650dffe40
gd1989-10-15d2t07.flac:40fa0493b3fe9858c417dfb49c395cae
gd1989-10-15d2t08.flac:2ee7a876fb93c4d7ece74ea57e7b6244
gd1989-10-15d2t09.flac:f5873e5e3a17d9280765b4afa4a6267c
gd1989-10-15d2t10.flac:82cb45cdf6ebc15828f40ec9cc4a1eb1
flac-md5
1794f0adf913ff4587b8c582c5f3e108 *gd1989-10-15d1t01.flac
58b8cab0800b7d456a76b716d97de4b6 *gd1989-10-15d1t02.flac
4bedba7ca70948d36f4afc594e7c9419 *gd1989-10-15d1t03.flac
da5e81f698a06f6235993c4f3483e03e *gd1989-10-15d1t04.flac
2492d5f9ef96947989c3e53cd184e459 *gd1989-10-15d1t05.flac
5d62be44a644408ead1644553eabf260 *gd1989-10-15d1t06.flac
3be19924c496ffcb9f5b26666f92556d *gd1989-10-15d1t07.flac
5575b5191723ee518c32f09f6dfd65aa *gd1989-10-15d1t08.flac
f30e01654da2f9859e5ef105b1e5be57 *gd1989-10-15d1t09.flac
636194c2529bc7c42fa3ed842fbba82c *gd1989-10-15d1t10.flac
7daa58936512c17f60c9960b60ecac88 *gd1989-10-15d1t11.flac
d0eeb6bd587d40e65a50eef4fe8ebba3 *gd1989-10-15d1t12.flac
0e07a34c5b72f5eb2c43ea8104d6cf15 *gd1989-10-15d2t01.flac
edfcbf100e2aa1d4dd3c3f80f23f15db *gd1989-10-15d2t02.flac
73d3d9130e88934767ed659348510d05 *gd1989-10-15d2t03.flac
73e5d50c7db8e64e4ba3a1753d9812a3 *gd1989-10-15d2t04.flac
a21fa574a2ff6d110d5634ac8d7174b9 *gd1989-10-15d2t05.flac
135d995c265a2c258ac2bf4bab947151 *gd1989-10-15d2t06.flac
c63572eddfce58c24f7eb2fda78b2583 *gd1989-10-15d2t07.flac
79c450f8acc75fecdfc6ff67b84340e3 *gd1989-10-15d2t08.flac
9b6181f2a6c03517131786be2f12c018 *gd1989-10-15d2t09.flac
88ea99a76efc33a19846570059a838d6 *gd1989-10-15d2t10.flac

Comments
Add Comment
Other Sources (comments)
SBD> C> DAT> CDR; seeded by... (1) flac16; Recording... (0) flac16; matrix of... (0) flac16; Master: AKG... (0) flac24; Master... (0) flac16; Master... (0) flac16/48kHz; Set 1... (0) flac16; Set 1... (0) flac16; Taper: M.... (0) flac16/48kHz; Set 2... (0) flac16/48kHz; Source... (0)
Date User Comment