Browse Collections Artists Sources   Search Dates

Add Show    List Management    Help


Grateful Dead 03/14/90
Capital Centre, Landover, MD
Comments Add Comment    Source Collectors    Add to Collection    Add to Want List    History
Source # 89693 Other Sources
Entered by Matt Vernon
Checksums ffp , flac-md5
Disc Counts 2 / 2
Media Size
Date Circulated
Date Added
01/28/2008
01/28/2008
Source Summary flac16; Matrix 2 Source Mix - SBD (shn id 8466) sbd> mc> dats> Soundforge 4.5>CD; via Tom E; + AUD (shn id 89689) MAV (Taped by LazyCow camera crew)JVC Single Tube Camera, Nak 300 Shotguns -> 0 Decks -> Panasonic AG-7400 -> S-VHS Master Transfer: S-VHS Master -> Sony SLV-R5UC -> Panasonic AG-7400 -> S-VHS 1st Gen Transfer: S-VHS 1st Gen -> Panasonic AG-7150 -> Canopus ADVC-100 -> iMac G4 -> Final Cut Pro 3 -> MP2 -> AIFF-> Brokedown House -> Adobe Audition 3.0 - matrix mixing by Kevin Tobin  
  Archive
Source Information - Download Text | Download Zip
Grateful Dead
3/14/90
Capitol Centre
Landover, MD

SBD + AUD Matrix 2 Source Mix (60%-SBD/40%-AUD)

Set I
d1t01 - Cold Rain And Snow
d1t01 - Feel Like A Stranger
d1t01 - Good Time Blues
d1t01 - Mama Tried>       
d1t01 - Big River     
d1t01 - Loose Lucy*       
d1t01 - Memphis Blues Again
d1t01 - Row Jimmy     
d1t01 - Let It Grow       

Set II
d2t01 - Crazy Fingers>
d2t01 - Playin' In The Band>
d2t01 - Uncle John's Band>
d2t01 - Playin' Reprise>       
d2t01 - Drums>
d2t01 - Space>
d2t01 - Dear Mr. Fantasy>       
d2t01 - I Need A Miracle>       
d2t01 - Black Peter>
d2t01 - Lovelight       

Encore
d2t01 - Black Muddy River

*first Loose Lucy since 10/19/74  - crowd goes nuts in the background

Audio Source Information
SBD (shnid=8466)
sbd>mc>dats>Soundforge 4.5>CDWAV>SHN
d1 tape flip b/t Loose Lucy & Memphis Blues
d2t6-4:31 tape flip
d2t1-Crazy Fingers- 5:14 tiny blip
d2t2-Playin- 4:24-4:26 static
i am 99.420% sure ' Let It Grow' from this show appears on Without A Net - Chris L.
Seed SHN's provided  by Tom E.
SBE's fixed and hosted by Chris L. at candyman.etree.org, 3/2002.

AUD (shnid=89689)
Master: JVC Single Tube Camera, Nak 300 Shotguns -> 0 Decks -> Panasonic AG-7400 -> S-VHS Master
Transfer: S-VHS Master -> Sony SLV-R5UC -> Panasonic AG-7400 -> S-VHS 1st Gen
Transfer: S-VHS 1st Gen -> Panasonic AG-7150 -> Canopus ADVC-100 -> iMac G4 -> Final Cut Pro 3 -> MP2 -> Brokedown House -> AIFF -> Adobe Audition 3.0
---------------------------------------------------------
Tech Notes

SHNs were decoded to wave and Audition 3.0 was used to reassemble the tracks back to 1 long wave.  Audition 3.0 was used to align & synch the SBD & AUD sources.  Audition 3.0 used to adjust the volume for AUDs, matrix/CTR and LFE channels.  Surcode CD Pro DTS was used to encode to DTS.
- Mixed by [email protected]
- FLAC conversion 02-JAN-2008  
---------------------------------------------------------
Multitrack Mixdown Settings

SET ONE

Stereo Matrix
SBD -0
AUD -1.5

SET TWO

Stereo Matrix
SBD -0
AUD -1.5
---------------------------------------------------------
Audio\Video Patches:
None

Brokedown House Production

    length     expanded size    cdr  WAVE problems  fmt   ratio  filename
     7:25.27       78561548 B   ---   --   -----    wav  1.0000  gd1990-03-14d1t01.wav
     8:31.23       90194540 B   ---   --   -----    wav  1.0000  gd1990-03-14d1t02.wav
     7:36.50       80556044 B   ---   --   -----    wav  1.0000  gd1990-03-14d1t03.wav
     2:31.10       26659964 B   ---   --   -----    wav  1.0000  gd1990-03-14d1t04.wav
     6:35.73       69849740 B   ---   --   -----    wav  1.0000  gd1990-03-14d1t05.wav
     7:10.72       76021388 B   ---   --   -----    wav  1.0000  gd1990-03-14d1t06.wav
    10:43.67      113582828 B   ---   --   -----    wav  1.0000  gd1990-03-14d1t07.wav
    10:56.10      115741964 B   ---   --   -----    wav  1.0000  gd1990-03-14d1t08.wav
    11:47.29      124783052 B   ---   --   -----    wav  1.0000  gd1990-03-14d1t09.wav
     8:31.34       90220412 B   ---   --   -----    wav  1.0000  gd1990-03-14d2t01.wav
    10:25.34      110330012 B   ---   --   -----    wav  1.0000  gd1990-03-14d2t02.wav
     8:05.18       85596380 B   ---   --   -----    wav  1.0000  gd1990-03-14d2t03.wav
     7:15.70       76898684 B   ---   --   -----    wav  1.0000  gd1990-03-14d2t04.wav
     6:45.30       71512604 B   ---   --   -----    wav  1.0000  gd1990-03-14d2t05.wav
     7:24.33       78399260 B   ---   --   -----    wav  1.0000  gd1990-03-14d2t06.wav
     5:53.10       62292764 B   ---   --   -----    wav  1.0000  gd1990-03-14d2t07.wav
     4:07.56       43702556 B   ---   --   -----    wav  1.0000  gd1990-03-14d2t08.wav
     7:54.14       83646572 B   ---   --   -----    wav  1.0000  gd1990-03-14d2t09.wav
     6:30.54       68923052 B   ---   --   -----    wav  1.0000  gd1990-03-14d2t10.wav
     5:57.38       63064220 B   ---   --   -----    wav  1.0000  gd1990-03-14d2t11.wav
   152:10.02     1610537584 B                            1.0000  (20 files)
Show Checksums
ffp
gd1990-03-14d1t01.flac:6cffa55b8c96acb2eaa99e0e52b26f69
gd1990-03-14d1t02.flac:9ba587dad5ac0b8b1fdc79ea11cd88b8
gd1990-03-14d1t03.flac:7e964b04820823e2d0581ab6c8f7f523
gd1990-03-14d1t04.flac:0c3a6d8ac96eb6651cb89ce7b5c178a7
gd1990-03-14d1t05.flac:b55af56efe78d799779401917e862c1d
gd1990-03-14d1t06.flac:531d8eaec1236fda00f0df7801e7cca7
gd1990-03-14d1t07.flac:517bfe01c3136ac57bb1ac2ffbdbd5aa
gd1990-03-14d1t08.flac:ffdb5df5bbd55944135da1c03e494add
gd1990-03-14d1t09.flac:4538328aef8fd13b6807575eff0246b9
gd1990-03-14d2t01.flac:b0c3dbe35c9fefe140bf65141e9038d9
gd1990-03-14d2t02.flac:ce4e1728ee7d9114898c512668d021c7
gd1990-03-14d2t03.flac:d69319e35a658afd42ea685f000945b2
gd1990-03-14d2t04.flac:c4bd410f168a12bde0873934e6df6123
gd1990-03-14d2t05.flac:a634fedad34c56358e6ead40047634ff
gd1990-03-14d2t06.flac:c66eb2d30d581325e57566e2ef5c9ba6
gd1990-03-14d2t07.flac:3f4877ddfa5ed4550384529f32d01ad4
gd1990-03-14d2t08.flac:a06a6f480101c425240e4257e1816c3f
gd1990-03-14d2t09.flac:f01376f8c8052f1aa051b568d32a3218
gd1990-03-14d2t10.flac:c1bc72066413fbbf02299659b5c64e94
gd1990-03-14d2t11.flac:65997f1ced99c98c67ffef7da2518a61
flac-md5
23aba34231462839983cdb6623024882 *gd1990-03-14d1t01.flac
d9e09a0d06fd7cef2fedf19ea5a0c240 *gd1990-03-14d1t02.flac
bb823988b557993a752c138422beaf93 *gd1990-03-14d1t03.flac
52cd498138e557da7c1481917bd093d0 *gd1990-03-14d1t04.flac
2dbffb651e2c56fdd9cd4d377ac8db85 *gd1990-03-14d1t05.flac
acbec5a66d936dd7425b79c17ec4e30e *gd1990-03-14d1t06.flac
39a79a810a9c8a773d105dabe57008f8 *gd1990-03-14d1t07.flac
878116b704a6d423a2afe5d07d6f57c4 *gd1990-03-14d1t08.flac
9b87d0d04f19d49e408143b21fc618f6 *gd1990-03-14d1t09.flac
5a880cff90590509aa7dedb15757b34a *gd1990-03-14d2t01.flac
558d4e69616c35a2aa79c18d8d4dfc68 *gd1990-03-14d2t02.flac
234810a1081d4bfcdd6e3d852e00a2b4 *gd1990-03-14d2t03.flac
14da9e31cacc05cee4c02813ddeb9c63 *gd1990-03-14d2t04.flac
c0a89d150609f35e52d75868b349b7d1 *gd1990-03-14d2t05.flac
af2a01c9dfa06b3ea0555c45796ac076 *gd1990-03-14d2t06.flac
eb6a2ca4d9c5d0b31667c55404592fbd *gd1990-03-14d2t07.flac
e7dd758bfa242752c29bb9a2fe377a26 *gd1990-03-14d2t08.flac
8b64fbf1a2c01ec2176c327c59b1924e *gd1990-03-14d2t09.flac
2f4ee79c8626ca995b12d0a8a1ba36be *gd1990-03-14d2t10.flac
d3cd9389e8922cbaf0a38b95c1e03393 *gd1990-03-14d2t11.flac

Comments
Add Comment
Other Sources (comments)
sbd>mc>dats>Soundforge... (0) flac16; Sennheiser... (0) flac16; MAV (Taped... (0) DTS Audio 5.1; SBD... (0) flac16; Unknown Mic... (0) flac16; Source:... (0) flac24; Master... (0) flac16; Master... (0) flac24; Recording... (0) flac16; Recording... (0) flac16/48kHz; Ted... (0)
Date User Comment