Browse Collections Artists Sources   Search Dates

Add Show    List Management    Help


Phish 05/29/94
Laguna Seca Raceway, Monterey, CA
Comments Add Comment    Source Collectors    Add to Collection    Add to Want List    History
Source # 89694 Other Sources
Entered by Jason Sobel
Checksums all_ffp , all_wav_md5
Disc Counts 2 / 3
Media Size
Date Circulated
Date Added
01/28/2008
01/28/2008
Source Summary Schoeps mk4 > kc5 > cmc5 > Sonosax SX-M2 > Apogee AD-500e > Sony TCD-D10 pro II (@ 48 kHz); Tascam DA-20MKII > Tascam HD-P2 > WaveLab 5.01b (fades, de-emphasis, 48 to 44.1 kHz, splice) > CD Wave v1.96.1 > FLAC v1.2.1 (Level 8); Taped by Eliot Byron; Transferred by Jason Sobel 
Source Information - Download Text | Download Zip
Phish
May 29, 1994
Laguna Seca Raceway
Monterey, CA

source:
Schoeps mk4 > kc5 > cmc5 > Sonosax SX-M2 > Apogee AD-500e > Sony TCD-D10 pro II (@ 48 kHz)

transfer:
Tascam DA-20MKII > Tascam HD-P2 > CF card > usb 2.0 > pc > WaveLab 5.01b (fades, de-emphasis, resample to 44.1 kHz, splice) > CD Wave v1.96.1 > FLAC v1.2.1 (Level 8)

FLAC tags added with metaflac v1.2.1

recorded by Eliot Byron
transferred by Jason Sobel ([email protected])
seeded January 28, 2008

notes:
The original DAT recording was made with pre-emphasis.
The Waves Q10 Paragraphic EQ (v5.0) plug-in was used to de-emphasize the recording.
The original 48 kHz .wav files from the DAT transfer have been archived, and are available upon request.
Big thanks to Eliot for letting me borrow the master DATs!

Disc 1 - [60:19]
Set I
01 - [13:26] - The Divided Sky
02 - [06:17] - Guelah Papyrus
03 - [05:26] - Halley's Comet >
04 - [07:07] - Down with Disease
05 - [03:54] - Sparkle
06 - [07:09] - Julius
07 - [03:45] - I Didn't Know
08 - [13:14] - David Bowie

Disc 2 - [72:55]
Set II
01 - [02:53] - Nellie Kane
02 - [15:08] - Split Open and Melt
03 - [09:03] - Esther
04 - [06:32] - Chalk Dust Torture
05 - [03:55] - Horn
06 - [09:11] - McGrupp and the Watchful Hosemasters
07 - [01:42] - Oh Kee Pa Ceremony >
08 - [05:43] - Suzy Greenberg
09 - [13:06] - Run Like an Antelope
10 - [04:07] - Freebird
11 - [01:35] - encore break #1

Disc 3 - [34:17]
Set II continued
01 - [04:31] - Wilson
02 - [04:29] - Golgi Apparatus
03 - [02:28] - Rocky Top
04 - [01:33] - encore break #2
05 - [01:33] - "guitar player's taking a leak" jam
06 - [13:21] - Harry Hood
07 - [05:14] - Good Times Bad Times
08 - [01:05] - outro

splice notes:
There were two minor drop-outs on the DAT during "David Bowie".
These were patched with the following source:

Schoeps MK4 > Rbox > Sony TCD-D10PROII (FOB DFC)
Taped by Keith Litzenberger
http://db.etree.org/shn/84441

Keith's source was used at the following spots:
[02:17] to [02:19]
[07:28] to [07:30]

-------------------------------------------------------------------------------------------

SHNtool output:

    length     expanded size   cdr  WAVE problems filename
    13:26.24      142234892    ---   --   ---xx   ph1994-05-29d1t01.flac
     6:17.22       66554588    ---   --   ---xx   ph1994-05-29d1t02.flac
     5:26.10       57529964    ---   --   ---xx   ph1994-05-29d1t03.flac
     7:06.67       75304028    ---   --   ---xx   ph1994-05-29d1t04.flac
     3:54.25       41336444    ---   --   ---xx   ph1994-05-29d1t05.flac
     7:08.57       75633308    ---   --   ---xx   ph1994-05-29d1t06.flac
     3:45.28       39755900    ---   --   ---xx   ph1994-05-29d1t07.flac
    13:13.67      140042828    ---   --   ---xx   ph1994-05-29d1t08.flac
     2:53.22       30568988    ---   --   ---xx   ph1994-05-29d2t01.flac
    15:08.04      160180652    ---   --   ---xx   ph1994-05-29d2t02.flac
     9:02.63       95757020    ---   --   ---xx   ph1994-05-29d2t03.flac
     6:32.03       69155900    ---   --   ---xx   ph1994-05-29d2t04.flac
     3:54.73       41449340    ---   --   ---xx   ph1994-05-29d2t05.flac
     9:10.68       97179980    ---   --   ---xx   ph1994-05-29d2t06.flac
     1:42.10       18016364    ---   --   ---xx   ph1994-05-29d2t07.flac
     5:42.52       60451148    ---   --   ---xx   ph1994-05-29d2t08.flac
    13:06.29      138718652    ---   --   ---xx   ph1994-05-29d2t09.flac
     4:07.09       43592012    ---   --   ---xx   ph1994-05-29d2t10.flac
     1:35.03       16765100    ---   --   ---xx   ph1994-05-29d2t11.flac
     4:31.34       47884412    ---   --   ---xx   ph1994-05-29d3t01.flac
     4:29.24       47508092    ---   --   ---xx   ph1994-05-29d3t02.flac
     2:28.31       26180156    ---   --   ---xx   ph1994-05-29d3t03.flac
     1:33.09       16426412    ---   --   ---xx   ph1994-05-29d3t04.flac
     1:33.31       16478156    ---   --   ---xx   ph1994-05-29d3t05.flac
    13:21.39      141388172    ---   --   ---xx   ph1994-05-29d3t06.flac
     5:13.68       55373180    ---   --   ---xx   ph1994-05-29d3t07.flac
     1:05.28       11531900    ---   --   ---xx   ph1994-05-29d3t08.flac
   167:31.00     1772997588 B                     (totals for 27 files, 0.4600 overall compression ratio)
Show Checksums
all_ffp
ph1994-05-29d1t01.flac:7f2133593e448b0ff2313886138ad856
ph1994-05-29d1t02.flac:d09e9f8879aa4d7e992f2af79d0d1e11
ph1994-05-29d1t03.flac:fc2dc34f857a19ac3920238c1186ebdb
ph1994-05-29d1t04.flac:b0142de8a4283955a6b07c8493b2f6cf
ph1994-05-29d1t05.flac:c34dd29543eb904336421d3729a5d0a6
ph1994-05-29d1t06.flac:343a7486f9a8fff406f7352db84ecd7d
ph1994-05-29d1t07.flac:b5f828e40efab82b2a16654f5fd766e4
ph1994-05-29d1t08.flac:0437450b1c66d88f473bd0460ab572d8
ph1994-05-29d2t01.flac:ebeb4ec1446f8d5370b9f10a154ad3f0
ph1994-05-29d2t02.flac:574770fd8928738da3801f9d7ad815f0
ph1994-05-29d2t03.flac:03b9d10e2d500a627514ce09cb4b86ef
ph1994-05-29d2t04.flac:32f2ade066942c1c3cdd38b40d08bdc7
ph1994-05-29d2t05.flac:f525f9241fa7fc050dcc052d7c7e6513
ph1994-05-29d2t06.flac:ba37d068192076d8c1298be2a7ab7194
ph1994-05-29d2t07.flac:1109903094b77039f37b877ec140c9a3
ph1994-05-29d2t08.flac:68e238235309f6a268006dbc53fcaa41
ph1994-05-29d2t09.flac:f0c1cbf94a4d6f9997819e0d50b27b99
ph1994-05-29d2t10.flac:ea28862d54ae7b6281537f4ae91cb977
ph1994-05-29d2t11.flac:0124b29fb443e8d9dad0aa4660cc47d9
ph1994-05-29d3t01.flac:375ef498db50c9fe441e1d43d20026e9
ph1994-05-29d3t02.flac:12457e3f6b12e1a5f5b75869f796e33a
ph1994-05-29d3t03.flac:f1230cd94c2cca3e3c97ad7b40367a59
ph1994-05-29d3t04.flac:193fccbd89c583ebe8df3b29dda1eeb9
ph1994-05-29d3t05.flac:69efbb3e1791e43f92f802cbc805fc1c
ph1994-05-29d3t06.flac:4610d9154bf4eb56b336607e4d60e8a5
ph1994-05-29d3t07.flac:acd311d3f72d2015d5386411b49bba33
ph1994-05-29d3t08.flac:f97ebee11a902d41c13829a2884afc25
all_wav_md5
c9fe4520bc9721c181196f6c9f8ffb12 *ph1994-05-29d1t01.wav
0d016c58bf1cc614aca2ce24a774e39c *ph1994-05-29d1t02.wav
705b58969830da5f8691656c99509a57 *ph1994-05-29d1t03.wav
539ee445ff6d37f5109f10133f646622 *ph1994-05-29d1t04.wav
fdd72073527eb4e3d4d99e4347d307d7 *ph1994-05-29d1t05.wav
9469b6fe2749db065cea3924468c1ef6 *ph1994-05-29d1t06.wav
9001d844edf05046e1dd99ad2cdb6e5d *ph1994-05-29d1t07.wav
5147b805514cf8c2b44bc9a249e34dd3 *ph1994-05-29d1t08.wav
cbb3ef32b906f10e16ffc82e927539a4 *ph1994-05-29d2t01.wav
6ac93d1554e741945b080be499155873 *ph1994-05-29d2t02.wav
728e56edf874bc0c76ee3eb5bac52eb8 *ph1994-05-29d2t03.wav
f5e8cba899d34b4303b1679e52f16ed4 *ph1994-05-29d2t04.wav
b0ac6933740fedb44b9e9bc084cb7b20 *ph1994-05-29d2t05.wav
00cb136d2aa99e040437eb31e04a9884 *ph1994-05-29d2t06.wav
1e7313df3cc4bbf159bddda4894abaf6 *ph1994-05-29d2t07.wav
1c9e68274f2d4818fd95571eb4cec03f *ph1994-05-29d2t08.wav
b440390964a6995b9a77cb83fe685937 *ph1994-05-29d2t09.wav
f026a52406ba474034ad484386a01b67 *ph1994-05-29d2t10.wav
b3e8897149cb2227fb55ff9c130180b4 *ph1994-05-29d2t11.wav
f4137c2cdfda744c2373637de5d16eec *ph1994-05-29d3t01.wav
74f0ef10f819d9888a398c89702a431f *ph1994-05-29d3t02.wav
f9456b814d7478c76fe1055131644c0a *ph1994-05-29d3t03.wav
a45db278db161d9ec4824c5a1794742d *ph1994-05-29d3t04.wav
f81d0ef70555daae14e4f3144c86b1a7 *ph1994-05-29d3t05.wav
8ef4a8dcf7d01b684a4540246905cb60 *ph1994-05-29d3t06.wav
8157773cd542e7dd51804586dda92d7e *ph1994-05-29d3t07.wav
c688b2eb1ba245cb01a3f3ac0a0dcbe8 *ph1994-05-29d3t08.wav

Comments
Add Comment
Other Sources (comments)
(.ape files); FOB Neumann... (2) Schoeps mk4 > Rbox > Sony... (1) In-house FM Broadcast >... (0)
Date User Comment