Browse Collections Artists Sources   Search Dates

Add Show    List Management    Help


Phish 07/23/93
Jones Beach Music Theater, Wantagh, NY
Comments Add Comment    Source Collectors    Add to Collection    Add to Want List    History
Source # 89734 Other Sources
Entered by Jason Sobel
Checksums all_ffp , all_wav_md5
Disc Counts 1 / 2
Media Size
Date Circulated
Date Added
01/30/2008
01/30/2008
Source Summary (FOB) Schoeps mk21 > kc5 > cmc5 > Sonosax SX-M2 > Sony D10 Pro II (@ 48 kHz); Tascam DA-20MKII > Tascam HD-P2 > WaveLab 5.01b (de-emphasis, fades) > r8brain v1.9 (48 to 44.1 kHz) > CD Wave v1.96.1 > FLAC v1.2.1 (Level 8); Taped by Eliot Byron; Transferred by Jason Sobel 
Source Information - Download Text | Download Zip
Phish
July 23, 1993
Jones Beach State Park
Wantagh, NY

source:
(FOB) Schoeps mk21 > kc5 > cmc5 > Sonosax SX-M2 > Sony D10 Pro II (@ 48 kHz)

transfer:
Tascam DA-20MKII > Tascam HD-P2 > CF card > usb 2.0 > pc > WaveLab 5.01b (de-emphasis, fades) > r8brain v1.9 (resample to 44.1 kHz) > CD Wave v1.96.1 > FLAC v1.2.1 (Level 8)

FLAC tags added with metaflac v1.2.1

recorded by Eliot Byron
transferred by Jason Sobel ([email protected])
seeded January 30, 2008

notes:
The original DAT recording was made with pre-emphasis.
The Waves Q10 Paragraphic EQ (v5.0) plug-in was used to de-emphasize the recording.
The original 48 kHz .wav files from the DAT transfer have been archived, and are available upon request.
Big thanks to Eliot for letting me borrow the master DATs!

Disc 1 - [62:24]
Set I
01 - [02:08] - Buried Alive >
02 - [05:57] - Rift ->
03 - [05:07] - Caravan
04 - [02:42] - Nellie Kane
05 - [10:06] - Maze
06 - [02:04] - The Horse >
07 - [04:51] - Silent in the Morning
08 - [07:00] - Punch You in the Eye
09 - [07:23] - Runaway Jim
10 - [07:53] - It's Ice
11 - [02:48] - Lawn Boy
12 - [04:26] - Cavern

Disc 2 - [70:46]
Set II
01 - [03:44] - 2001 ->
02 - [02:14] - Poor Heart
03 - [11:48] - Run Like an Antelope
04 - [03:08] - Faht >
05 - [06:27] - My Friend My Friend
06 - [03:57] - Uncle Pen
07 - [02:40] - Big Ball Jam
08 - [15:01] - You Enjoy Myself ->
09 - [03:42] - Big Black Furry Creature from Mars
10 - [05:48] - Chalk Dust Torture
11 - [03:19] - Highway to Hell
12 - [03:13] - encore break
13 - [02:10] - Amazing Grace
14 - [03:35] - Daniel

--------------------------------------------------------------------------------------------

SHNtool len mode output:

    length     expanded size   cdr  WAVE problems filename
     2:08.26       22640396    ---   --   ---xx   ph1993-07-23d1t01.flac
     5:57.29       63043052    ---   --   ---xx   ph1993-07-23d1t02.flac
     5:06.45       54084284    ---   --   ---xx   ph1993-07-23d1t03.flac
     2:41.45       28506284    ---   --   ---xx   ph1993-07-23d1t04.flac
    10:05.41      106818476    ---   --   ---xx   ph1993-07-23d1t05.flac
     2:03.45       21803084    ---   --   ---xx   ph1993-07-23d1t06.flac
     4:50.40       51250124    ---   --   ---xx   ph1993-07-23d1t07.flac
     7:00.34       74168012    ---   --   ---xx   ph1993-07-23d1t08.flac
     7:22.70       78133484    ---   --   ---xx   ph1993-07-23d1t09.flac
     7:53.27       83500748    ---   --   ---xx   ph1993-07-23d1t10.flac
     2:47.52       29581148    ---   --   ---xx   ph1993-07-23d1t11.flac
     4:25.71       46913036    ---   --   ---xx   ph1993-07-23d1t12.flac
     3:43.51       39457196    ---   --   ---xx   ph1993-07-23d2t01.flac
     2:14.28       23703500    ---   --   ---xx   ph1993-07-23d2t02.flac
    11:47.55      124844204    ---   --   ---xx   ph1993-07-23d2t03.flac
     3:08.12       33191468    ---   --   ---xx   ph1993-07-23d2t04.flac
     6:27.32       68342108    ---   --   ---xx   ph1993-07-23d2t05.flac
     3:56.42       41729228    ---   --   ---xx   ph1993-07-23d2t06.flac
     2:39.39       28139372    ---   --   ---xx   ph1993-07-23d2t07.flac
    15:00.55      158889404    ---   --   ---xx   ph1993-07-23d2t08.flac
     3:42.19       39205532    ---   --   ---xx   ph1993-07-23d2t09.flac
     5:47.69       61373132    ---   --   ---xx   ph1993-07-23d2t10.flac
     3:19.11       35129516    ---   --   ---xx   ph1993-07-23d2t11.flac
     3:12.74       34042892    ---   --   ---xx   ph1993-07-23d2t12.flac
     2:10.04       22941452    ---   --   ---xx   ph1993-07-23d2t13.flac
     3:35.34       38006012    ---   --   ---xx   ph1993-07-23d2t14.flac
   133:10.00     1409437144 B                     (totals for 26 files, 0.4584 overall compression ratio)
Show Checksums
all_ffp
ph1993-07-23d1t01.flac:4549d9dc44edfbac240ca0146138ce81
ph1993-07-23d1t02.flac:82469e636f1cbef1bb73240f297fdeea
ph1993-07-23d1t03.flac:65a8d3dcadc79228368cdfff690ad81b
ph1993-07-23d1t04.flac:b33d5dfd4e3283e9098b710f67ade041
ph1993-07-23d1t05.flac:dcc219d0c3361f68fc583ef7073ba530
ph1993-07-23d1t06.flac:de6fd981ef8cd250277d07e299d5dc0d
ph1993-07-23d1t07.flac:c13d9b076cbd2819ee83258bef36bf09
ph1993-07-23d1t08.flac:54b3af4c61edfeed9dd57e9c63b93710
ph1993-07-23d1t09.flac:1ba0db38ce49d90c91f28c2b715446a6
ph1993-07-23d1t10.flac:28c3421636734b9d75630c39ab3b2488
ph1993-07-23d1t11.flac:1335570a4ce031d8912152dedd55bdc6
ph1993-07-23d1t12.flac:37a2addcaebb505ab0c943ad62a63889
ph1993-07-23d2t01.flac:c02ca2408c6ba1c07d2c254f0f6d9a8f
ph1993-07-23d2t02.flac:67092df55368c6ece14cd5a350089ba6
ph1993-07-23d2t03.flac:81ee0b26dca7413a8a6c31541ff9b4ee
ph1993-07-23d2t04.flac:6a7157581dc8d3453f2208ea000caec9
ph1993-07-23d2t05.flac:1beedd70c5251f743343cc8dabc42514
ph1993-07-23d2t06.flac:acdc7ca50a022d2c40b38f7a5e2dcd3a
ph1993-07-23d2t07.flac:8f18611d5c4c5b6eb60ba605d8cb7e0f
ph1993-07-23d2t08.flac:d38947305adbc3383335d685e408d48e
ph1993-07-23d2t09.flac:701a07251828ce820d0acc2ad617281c
ph1993-07-23d2t10.flac:f8742ec3c29b114f092b15cb8db694f2
ph1993-07-23d2t11.flac:19d9a59bd5979da7cc1d2e91e4630e02
ph1993-07-23d2t12.flac:8f2cd98a0c83776367f9e33266280d68
ph1993-07-23d2t13.flac:308846c51ef4bf1d74bf4b808330befe
ph1993-07-23d2t14.flac:1d2e3d3c96ff759d202f850f20b97e77
all_wav_md5
c3e6bf8a8ec1f2ae35cf1f881577cfd5 *ph1993-07-23d1t01.wav
bd259c488ca07d69a353c356a1b954a5 *ph1993-07-23d1t02.wav
7d7973a1b2c03fa1302fef2d474eac26 *ph1993-07-23d1t03.wav
3d3af0def99fb37e3893eb08fc1c136d *ph1993-07-23d1t04.wav
55c211a4338483c71c194fa8fd9ba8a7 *ph1993-07-23d1t05.wav
a6a1cbf5f8913d1ca04816bf589862d7 *ph1993-07-23d1t06.wav
d6ae60f76c1f909a3c1253e29befbcf0 *ph1993-07-23d1t07.wav
c3bfb279219ee11ce5cea36ee9bd7f4f *ph1993-07-23d1t08.wav
c24a548b4aaab626fdbd67f71e27d2cd *ph1993-07-23d1t09.wav
140b8004d7e91ef7b403776ba5ae4659 *ph1993-07-23d1t10.wav
e43fd7511a88c64929b1592173201e86 *ph1993-07-23d1t11.wav
22c5d4e48b029faaff2e31a5f00d9b8a *ph1993-07-23d1t12.wav
a80757ca09c2a5cf9edb10570fe79b69 *ph1993-07-23d2t01.wav
f7cbc243683db77e2196f44b8dd729e7 *ph1993-07-23d2t02.wav
f882e7f15623988f8f4a4a60a2b6d96c *ph1993-07-23d2t03.wav
ec32c03b7ddd484cd21aa760466d61ca *ph1993-07-23d2t04.wav
4ae1b5c1b37a2273eae532816da8baf0 *ph1993-07-23d2t05.wav
f361c04919b1d618d363c006d017da33 *ph1993-07-23d2t06.wav
5cb183d8cd8f3f5a5f9db1dc579134ff *ph1993-07-23d2t07.wav
36e3dca0a805c74d4d3dfb29af08cd1b *ph1993-07-23d2t08.wav
a8c06491e5253674bace48e230be5e27 *ph1993-07-23d2t09.wav
5895d3ecee1be17055fbb6d7f05d314d *ph1993-07-23d2t10.wav
69de9b16ab72a1ab269c47a817a13e00 *ph1993-07-23d2t11.wav
b7dca28d8a07bd4bce7f8f82b853e1e6 *ph1993-07-23d2t12.wav
c5e374c4fc94e05ef9520f76065565a0 *ph1993-07-23d2t13.wav
2599abb7f2d645f3db200135a9cc93d5 *ph1993-07-23d2t14.wav

Comments
Add Comment
Other Sources (comments)
FOB 2-AKG460b/ck61 > Teac... (2) SBD > Cass/X > DAT;... (0) flac16, 44kHz;... (0) flac24, 48kHz;... (0) flac16 48kHz FOB... (0)
Date User Comment