Browse Collections Artists Sources   Search Dates

Add Show    List Management    Help


Phish 08/12/96
Deer Creek Music Center, Noblesville, IN
Comments Add Comment    Source Collectors    Add to Collection    Add to Want List    History
Source # 89843 Other Sources
Entered by Jason Sobel
Checksums all_ffp
Disc Counts 2 / 3
Media Size
Date Circulated
Date Added

02/03/2008
Source Summary Nakamichi CM300 & PZM 30D mix-> Niles Audiomixer-> Sony D3 (@ 48kHz); PCM-R300-> M-Audio Delta 1010Lt-> Wave Lab 5.0 (OZone3, Fades, L2Dither 44.1kHz) -> Traders Little Helper (flac8); Taped by Greg Holtz 
Source Information - Download Text | Download Zip
Phish
Deer Creek
Noblesville IN
August 12, 1996

Taper: Greg Holtz

Source: Nakamichi CM300 & PZM 30D mix-> Niles Audiomixer-> D3 @ 48kHz

Transfer: (By JAZ) DAT Master-> PCM-R300-> Coax-> M-Audio Delta 1010Lt->  Wave Lab 5.0, OZone3, Fades, L2Dither 44.1kHz-> Traders Little Helper flac8

Set I (Disk I)
1.Ya Mar
2.Split Open and Melt
3.Esther
4.Chalk Dust Torture
5.Weigh
6.It's Ice
7.Dog Faced Boy
8.Taste
9.Oh Kee Pa Ceremony->
10.Suzie Greenberg

Set II (Disk II)
11.Timber Ho
12.Sparkle
13.Simple
14.Prince Caspian->
15.McGrupp and the Watchful Hosemasters
16.Run Like an Antelope

(Disk III)
17.Hello Ma Baby
18.Golgi Apparatus
19.Possum

Encore:
20.Sample in a Jar

FLAC FINGERPRINT:
Phish1996-08-12trk01.flac:9fa99d3f2fd460ba74458c7dd6d02013
Phish1996-08-12trk02.flac:e300f282dd2e96b93f5f5973e02ba8c2
Phish1996-08-12trk03.flac:7b74e74cee5328eea4f00bc7b61d13d4
Phish1996-08-12trk04.flac:c214af0a1f28eb280f12a4cbb37b2998
Phish1996-08-12trk05.flac:c3817e95112ee3315168fe5ad9f01a14
Phish1996-08-12trk06.flac:a4344217f652e92653aa5dc0669d2427
Phish1996-08-12trk07.flac:6517581d41e5fbf696ec3c758bdd620e
Phish1996-08-12trk08.flac:2ba791b62aa66b8f09cbaa8464f9c7a4
Phish1996-08-12trk09.flac:04c737f8b7f898e0917179b07a8601db
Phish1996-08-12trk10.flac:52a5bfbb044595bb92250906ef5730fa
Phish1996-08-12trk11.flac:c58a3f43ef8a5c682cbfe778c1cf4e4e
Phish1996-08-12trk12.flac:36a07bb3807078987dc8b97aac59a188
Phish1996-08-12trk13.flac:5188344dad3dbd872409bb9825da238b
Phish1996-08-12trk14.flac:0f47055c0bcc6d374677cc23ae66b518
Phish1996-08-12trk15.flac:9b64e47f46fa1a9040ed2299376d35de
Phish1996-08-12trk16.flac:4e8cc07e8b15d393cc69345fc223b9e7
Phish1996-08-12trk17.flac:7d47f781cca8e6947cc15714ce1fcabb
Phish1996-08-12trk18.flac:e99ee726ea0969b6e24c7c15defdfd16
Phish1996-08-12trk19.flac:2f7d656aaa5fab8c7402043ccb5c9aeb
Phish1996-08-12trk20.flac:f982caaeff2cca27dedcf29264eb86dd

SHNTOOL:
    length     expanded size   cdr  WAVE problems filename
     9:18.23       98485340    ---   --   ---xx   Phish1996-08-12trk01.flac
    12:50.00      135828044    ---   --   ---xx   Phish1996-08-12trk02.flac
     9:08.05       96679004    ---   --   ---xx   Phish1996-08-12trk03.flac
     6:47.14       71827772    ---   --   ---xx   Phish1996-08-12trk04.flac
     5:00.69       53082332    ---   --   ---xx   Phish1996-08-12trk05.flac
     9:56.30      105205004    ---   --   ---xx   Phish1996-08-12trk06.flac
     2:09.35       22837964    ---   --   ---xx   Phish1996-08-12trk07.flac
     5:41.30       60223004    ---   --   ---xx   Phish1996-08-12trk08.flac
     1:45.52       18644348    ---   --   ---xx   Phish1996-08-12trk09.flac
     6:31.24       69028892    ---   --   ---xx   Phish1996-08-12trk10.flac
     7:57.26       84203996    ---   --   ---xx   Phish1996-08-12trk11.flac
     3:37.73       38450540    ---   --   ---xx   Phish1996-08-12trk12.flac
     8:39.50       91669244    ---   --   ---xx   Phish1996-08-12trk13.flac
     5:18.30       56165804    ---   --   ---xx   Phish1996-08-12trk14.flac
     9:16.51       98198396    ---   --   ---xx   Phish1996-08-12trk15.flac
    13:56.24      147526892    ---   --   ---xx   Phish1996-08-12trk16.flac
     1:40.67       17797628    ---   --   ---xx   Phish1996-08-12trk17.flac
     4:37.46       48971036    ---   --   ---xx   Phish1996-08-12trk18.flac
    15:37.09      165308012    ---   --   ---xx   Phish1996-08-12trk19.flac
     5:17.74       56092892    ---   --   ---xx   Phish1996-08-12trk20.flac
   145:08.57     1536226144 B                     (totals for 20 files, 0.5015 overall compression ratio)


Show Checksums
all_ffp
Phish1996-08-12trk01.flac:9fa99d3f2fd460ba74458c7dd6d02013
Phish1996-08-12trk02.flac:e300f282dd2e96b93f5f5973e02ba8c2
Phish1996-08-12trk03.flac:7b74e74cee5328eea4f00bc7b61d13d4
Phish1996-08-12trk04.flac:c214af0a1f28eb280f12a4cbb37b2998
Phish1996-08-12trk05.flac:c3817e95112ee3315168fe5ad9f01a14
Phish1996-08-12trk06.flac:a4344217f652e92653aa5dc0669d2427
Phish1996-08-12trk07.flac:6517581d41e5fbf696ec3c758bdd620e
Phish1996-08-12trk08.flac:2ba791b62aa66b8f09cbaa8464f9c7a4
Phish1996-08-12trk09.flac:04c737f8b7f898e0917179b07a8601db
Phish1996-08-12trk10.flac:52a5bfbb044595bb92250906ef5730fa
Phish1996-08-12trk11.flac:c58a3f43ef8a5c682cbfe778c1cf4e4e
Phish1996-08-12trk12.flac:36a07bb3807078987dc8b97aac59a188
Phish1996-08-12trk13.flac:5188344dad3dbd872409bb9825da238b
Phish1996-08-12trk14.flac:0f47055c0bcc6d374677cc23ae66b518
Phish1996-08-12trk15.flac:9b64e47f46fa1a9040ed2299376d35de
Phish1996-08-12trk16.flac:4e8cc07e8b15d393cc69345fc223b9e7
Phish1996-08-12trk17.flac:7d47f781cca8e6947cc15714ce1fcabb
Phish1996-08-12trk18.flac:e99ee726ea0969b6e24c7c15defdfd16
Phish1996-08-12trk19.flac:2f7d656aaa5fab8c7402043ccb5c9aeb
Phish1996-08-12trk20.flac:f982caaeff2cca27dedcf29264eb86dd

Comments
Add Comment
Other Sources (comments)
AKG 3000; Fostex D-5 > U2A... (0) AT ATM61HE's > Niles Preamp... (1) Microtech Gefell m300 > DAT... (0) Schoeps CMC6/mk4 (ORTF) >... (2) Microtech Gefell m300 >... (0) set 2 only; B&K 4011s >... (0) flac16 (Set 1 48k... (1)
Date User Comment