Browse Collections Artists Sources   Search Dates

Add Show    List Management    Help


Grateful Dead 08/04/89
Cal Expo, Sacramento, CA
Comments Add Comment    Source Collectors    Add to Collection    Add to Want List    History
Source # 89884 Other Sources
Entered by Matt Vernon
Checksums ffp , flac-md5
Disc Counts 2 / 3
Media Size
Date Circulated
Date Added
02/05/2008
02/05/2008
Source Summary flac16; Recording Info: SBD -> Cassette Master (TDK MA-XG90) Transfer Info: Cassette Master (Nakamichi DR-1) -> Sound Devices 744T (24bit/48k) -> Samplitude Professional v10.02 -> FLAC/16 All Transfers and Mastering By Charlie Miller 
  Archive
Source Information - Download Text | Download Zip
Grateful Dead - August 4, 1989
Cal Expo Amphitheatre - Sacramento, CA

Recording Info:
SBD -> Cassette Master (TDK MA-XG90)

Transfer Info:
Cassette Master (Nakamichi DR-1) -> Sound Devices 744T (24bit/48k) ->
Samplitude Professional v10.02 -> FLAC/16
(3 Discs Audio / 2 Discs FLAC)

All Transfers and Mastering By Charlie Miller
[email protected]
February 5, 2008

Patch Info:
AUD Source from David Minches supplies:
Space (3:30 - 3:53)

Notes:
-- Discs 2 and 3 are seamless

Set 1:
d1t01 - Tuning
d1t02 - Bertha ->
d1t03 - Greatest Story Ever Told
d1t04 - Althea
d1t05 - Mama Tried ->
d1t06 - Mexicali Blues
d1t07 - Never Trust A Woman
d1t08 - Built To Last
d1t09 - Queen Jane Approximately
d1t10 - Jack-A-Roe
d1t11 - Cassidy
d1t12 - Deal

Set 2:
d2t01 - Tuning
d2t02 - Truckin' ->
d2t03 - Wang Dang Doodle ->
d2t04 - Crazy Fingers ->
d2t05 - Cumberland Blues ->
d2t06 - Eyes Of The World ->
d2t07 - Drums ->
d2t08 - Space ->
d2t09 - The Wheel ->
d2t10 - I Need A Miracle ->
d2t11 - Stella Blue ->
d2t12 - Sugar Magnolia

Encore:
d3t01 - Crowd/Tuning
d3t02 - It's All Over Now, Baby Blue


SHNTOOL OUTPUT:
    length     expanded size   cdr  WAVE problems filename
     1:21.30       14359004    ---   --   -----   gd89-08-04d1t01.wav
     6:49.61       72291116    ---   --   -----   gd89-08-04d1t02.wav
     4:45.22       50325788    ---   --   -----   gd89-08-04d1t03.wav
    10:18.73      109186940    ---   --   -----   gd89-08-04d1t04.wav
     2:37.14       27727772    ---   --   -----   gd89-08-04d1t05.wav
     6:35.44       69781532    ---   --   -----   gd89-08-04d1t06.wav
     7:14.23       76611740    ---   --   -----   gd89-08-04d1t07.wav
     5:01.19       53141132    ---   --   -----   gd89-08-04d1t08.wav
     9:42.62      102810668    ---   --   -----   gd89-08-04d1t09.wav
     5:13.47       55323788    ---   --   -----   gd89-08-04d1t10.wav
     7:48.25       82614044    ---   --   -----   gd89-08-04d1t11.wav
     8:29.53       89912300    ---   --   -----   gd89-08-04d1t12.wav
     0:32.46        5753036    ---   --   -----   gd89-08-04d2t01.wav
     7:18.21       77312636    ---   --   -----   gd89-08-04d2t02.wav
     4:38.57       49173308    ---   --   -----   gd89-08-04d2t03.wav
     9:22.39       99228572    ---   --   -----   gd89-08-04d2t04.wav
     5:33.14       58774172    ---   --   -----   gd89-08-04d2t05.wav
     9:36.37      101693468    ---   --   -----   gd89-08-04d2t06.wav
     6:52.08       72695660    ---   --   -----   gd89-08-04d2t07.wav
    10:10.59      107742812    ---   --   -----   gd89-08-04d2t08.wav
     3:49.10       40419164    ---   --   -----   gd89-08-04d2t09.wav
     4:13.40       44723324    ---   --   -----   gd89-08-04d2t10.wav
     8:09.22       86311388    ---   --   -----   gd89-08-04d2t11.wav
     9:38.41      102055676    ---   --   -----   gd89-08-04d2t12.wav
     1:59.06       21005756    ---   --   -----   gd89-08-04d3t01.wav
     7:42.00       81496844    ---   --   -----   gd89-08-04d3t02.wav
   165:34.48     1752471640 B                     (totals for 26 files)
Show Checksums
ffp
gd89-08-04d1t01.flac:e1e46e300b33c5fceed25b09f7a926bd
gd89-08-04d1t02.flac:0b97ebc9069524ae793373476b9b015e
gd89-08-04d1t03.flac:3220f5a256dcabd26f81e8fa334968ac
gd89-08-04d1t04.flac:1bdc35e5d2d9cb9932f5f76c43462639
gd89-08-04d1t05.flac:8d9f8e5f8ded3f2ed331697e56ef3866
gd89-08-04d1t06.flac:143a997f979d073ed056cedddeda6f9b
gd89-08-04d1t07.flac:0b0d335fdd20c9c2a0422d2d5f9e6761
gd89-08-04d1t08.flac:f2a0abad42d425524c0d8387e082e84f
gd89-08-04d1t09.flac:892ddf8576b0697b73589691f1f8769c
gd89-08-04d1t10.flac:43e796a3e80de1c89170c21092424653
gd89-08-04d1t11.flac:443608db8e764e0b3ea0a3a4b146eb41
gd89-08-04d1t12.flac:2e891c57f606cc5ee1ec5213c5f767c4
gd89-08-04d2t01.flac:1de5b2dc37b858764871311ab2aeaddc
gd89-08-04d2t02.flac:fb240ab2c63008b713344d8ed429adfb
gd89-08-04d2t03.flac:867a771e0ad6a3348ce3cd0ee8ccb3bf
gd89-08-04d2t04.flac:8204070735bce897ed2b00ed5bbdc413
gd89-08-04d2t05.flac:d823a58c161458ad955c6b535b8feaf3
gd89-08-04d2t06.flac:76ba8f91f3b5c94e86b6d2e5a09b951b
gd89-08-04d2t07.flac:ffef23747e6e95c01c86835d9402e335
gd89-08-04d2t08.flac:8499e97ab9981514bbafc8b7cef31bdd
gd89-08-04d2t09.flac:6d9e20385e91d9e222b43f71cb1fa735
gd89-08-04d2t10.flac:4649d2ae3431565854b0e94ff1dc08a1
gd89-08-04d2t11.flac:24ca56c5f61a2fd0bb7ddc983a2820f1
gd89-08-04d2t12.flac:99b0878c44e77c6963c8e9a341161928
gd89-08-04d3t01.flac:f15a0eb192467faf98069405bd729023
gd89-08-04d3t02.flac:131ffee8a6b2d7ff63fc28a040cbcaca
flac-md5
4fd160588c134ee265a1ef990ea0a78d *gd89-08-04d1t01.flac
4c2b0e6013494e9400c8a9f7548716d8 *gd89-08-04d1t02.flac
c4c98d4a0455e2486a14878e5df30184 *gd89-08-04d1t03.flac
c4edd936cbd99b84a1d9940e103aeab2 *gd89-08-04d1t04.flac
31606feb8534dcf0b4a353e621ecfe71 *gd89-08-04d1t05.flac
c477763092d3f1dfd1a09ff50fddadc0 *gd89-08-04d1t06.flac
274d970633e62a8b02ac4f6347d1e2ff *gd89-08-04d1t07.flac
4c317222a427fe72f43b4da900796288 *gd89-08-04d1t08.flac
8476e519259f5f5e2573cc55b3455f65 *gd89-08-04d1t09.flac
09bd9f8124afd1cbc45fbcdf79bab4b9 *gd89-08-04d1t10.flac
6387dd9bb5bfb2e28f1c89c23cfaca22 *gd89-08-04d1t11.flac
517ba54d5185c45ecc9d1ad13885b4b6 *gd89-08-04d1t12.flac
43a9558bff870137598a9b66513140c9 *gd89-08-04d2t01.flac
6612ee5dc882cf1dd1bfc4128c962e31 *gd89-08-04d2t02.flac
5eaa0813f16e6725e11da3e1e47cdf8e *gd89-08-04d2t03.flac
888b10d7faffd4cd4d5e053db7cc51a7 *gd89-08-04d2t04.flac
9874b4da426a3e4b3a273a925aa68b87 *gd89-08-04d2t05.flac
983a164e31d15b1a9a456a83fc37e9fd *gd89-08-04d2t06.flac
f48b9ef6639d9174cf10d6a205aef565 *gd89-08-04d2t07.flac
6f83cc04b7474c18523b7d5e2baec3cc *gd89-08-04d2t08.flac
e9ed769ffae3e73e7388cda7995c7219 *gd89-08-04d2t09.flac
a6603984cd3402479fe479facff9b379 *gd89-08-04d2t10.flac
048b69196bc2b919aeea59a5f5c484ae *gd89-08-04d2t11.flac
174497a95bd16577bbd58f9a69ceff4f *gd89-08-04d2t12.flac
e0332d47c5319fd0fff3303ece929dd1 *gd89-08-04d3t01.flac
53fcb9b8fe55c3aa3fd5f6000125dc75 *gd89-08-04d3t02.flac

Comments
Add Comment
Other Sources (comments)
SBD > MC > DAT > CDR;... (0) flac16; AUD Source:... (0) flac16; Source:... (0) flac16; Schoeps CMC... (0)
Date User Comment