Browse Collections Artists Sources   Search Dates

Add Show    List Management    Help


Grateful Dead 08/05/89
Cal Expo, Sacramento, CA
Comments Add Comment    Source Collectors    Add to Collection    Add to Want List    History
Source # 89885 Other Sources
Entered by Matt Vernon
Checksums ffp , flac-md5
Disc Counts 2 / 3
Media Size
Date Circulated
Date Added
02/06/2008
02/06/2008
Source Summary flac16; Recording Info: SBD -> Cassette Master (TDK MA-XG90) Transfer Info: Cassette Master (Nakamichi DR-1) -> Sound Devices 744T (24bit/48k) -> Samplitude Professional v10.02 -> FLAC/16 All Transfers and Mastering By Charlie Miller 
  Archive
Source Information - Download Text | Download Zip
Grateful Dead - August 5, 1989
Cal Expo Amphitheatre - Sacramento, CA

Recording Info:
SBD -> Cassette Master (TDK MA-XG90)

Transfer Info:
Cassette Master (Nakamichi DR-1) -> Sound Devices 744T (24bit/48k) ->
Samplitude Professional v10.02 -> FLAC/16
(3 Discs Audio / 2 Discs FLAC)

All Transfers and Mastering By Charlie Miller
[email protected]
February 4, 2008

Patch Info:
(FOB) Schoeps MK2 (spread) -> Dat > CD (shnid-3871) supplies:
Space (8:33 - 9:14)

Notes:
-- Set 2 is seamless

Set 1:
d1t01 - Tuning
d1t02 - One More Saturday Night
d1t03 - Cold Rain And Snow
d1t04 - We Can Run
d1t05 - Stagger Lee
d1t06 - Stuck Inside Of Mobile With The Memphis Blues Again
d1t07 - Row Jimmy
d1t08 - Let It Grow

Set 2:
d2t01 - Tuning
d2t02 - Hey Pocky Way ->
d2t03 - Playing In The Band ->
d2t04 - I Know You Rider ->
d2t05 - Terrapin Station ->
d2t06 - Drums ->
d3t01 - Space ->
d3t02 - Standing On The Moon ->
d3t03 - Throwing Stones ->
d3t04 - Not Fade Away

Encore:
d3t05 - U.S. Blues


SHNTOOL OUTPUT:
    length     expanded size   cdr  WAVE problems filename
     4:23.19       46437932    ---   --   -----   gd89-08-05d1t01.wav
     5:35.68       59253980    ---   --   -----   gd89-08-05d1t02.wav
     8:19.45       88129484    ---   --   -----   gd89-08-05d1t03.wav
     5:25.26       57391196    ---   --   -----   gd89-08-05d1t04.wav
     6:34.46       69609836    ---   --   -----   gd89-08-05d1t05.wav
    11:10.74      118362092    ---   --   -----   gd89-08-05d1t06.wav
    11:37.71      123117836    ---   --   -----   gd89-08-05d1t07.wav
    11:54.19      125994332    ---   --   -----   gd89-08-05d1t08.wav
     1:03.08       11132060    ---   --   -----   gd89-08-05d2t01.wav
     6:40.31       70632956    ---   --   -----   gd89-08-05d2t02.wav
     7:28.68       79187180    ---   --   -----   gd89-08-05d2t03.wav
     6:36.73       70026140    ---   --   -----   gd89-08-05d2t04.wav
    12:53.02      136361948    ---   --   -----   gd89-08-05d2t05.wav
     4:00.51       42455996    ---   --   -----   gd89-08-05d2t06.wav
    10:56.38      115807820    ---   --   -----   gd89-08-05d3t01.wav
     9:56.31      105207356    ---   --   -----   gd89-08-05d3t02.wav
    10:18.73      109186940    ---   --   -----   gd89-08-05d3t03.wav
    13:03.31      138194156    ---   --   -----   gd89-08-05d3t04.wav
     5:53.32       62344508    ---   --   -----   gd89-08-05d3t05.wav
   153:53.56     1628833748 B                     (totals for 19 files)
Show Checksums
ffp
gd89-08-05d1t01.flac:4d5c44a91c926dba44a2321207da54b3
gd89-08-05d1t02.flac:b6109ee36378b7de6ed985ad60551fd8
gd89-08-05d1t03.flac:7764f92d1b62a6478395e550d1200985
gd89-08-05d1t04.flac:359b8d7330dd06436b52e513110cd66f
gd89-08-05d1t05.flac:94cc32fc86efe5c7eafecebe6136c14c
gd89-08-05d1t06.flac:6eb06aeb799cc061c0248c32670d51c1
gd89-08-05d1t07.flac:822309cdb758e98aa5bb92c320e66f6b
gd89-08-05d1t08.flac:3cd05213b6b2d46ef0dacc9bc818a676
gd89-08-05d2t01.flac:7c90e50c0da11cb17a2cedb5ca7f0bbf
gd89-08-05d2t02.flac:72aef91ce6290ad37b0c7d50f7900773
gd89-08-05d2t03.flac:1920ea4de59368a7de560862ff7d8c7a
gd89-08-05d2t04.flac:04dafeb557c4400250ff12daa58fa2a9
gd89-08-05d2t05.flac:71478c23674f547db3434d3b6bc94c82
gd89-08-05d2t06.flac:4edf4001f6347a8c5a15b93c6c3a1557
gd89-08-05d3t01.flac:3b6f68dc5c103341bab4c35c68a1654c
gd89-08-05d3t02.flac:bd28fd28f32f1e0d9aa65cb3b9cb428d
gd89-08-05d3t03.flac:87ca7935b4cdcde75e4413099e5555b2
gd89-08-05d3t04.flac:b348cf7d4348aae219e7cc073636fa76
gd89-08-05d3t05.flac:961bae881b199752018c3c1a667ebbe5
flac-md5
d883de58f53e176988d4105bb8bc14d2 *gd89-08-05d1t01.flac
7b79284c35d5f5108dd1acf7ada8943d *gd89-08-05d1t02.flac
3fc04e09305eb1bb89dd396f46f209d1 *gd89-08-05d1t03.flac
12990a32658e293f30f0aed70e843dea *gd89-08-05d1t04.flac
bc968f1541f1dffee106605c7ce77e96 *gd89-08-05d1t05.flac
8c7944f498fb006e4263814116f7525a *gd89-08-05d1t06.flac
02a5305348c79c3bd0edda2d6c6ffca5 *gd89-08-05d1t07.flac
60175c2e5516460424b36ef18f7ed64b *gd89-08-05d1t08.flac
df953cf9c39c311e0790b251072d365e *gd89-08-05d2t01.flac
fd875b35d4a63da5bdc4cc73a74fb528 *gd89-08-05d2t02.flac
a2fe2c51ddf9e468e4d6115b90219d2c *gd89-08-05d2t03.flac
948a85d48fa54aa14d2a63e926718609 *gd89-08-05d2t04.flac
87bfbb325041fc1bad2355f1973b14b4 *gd89-08-05d2t05.flac
b4a2c35971dfcf0508871bf1c8823f46 *gd89-08-05d2t06.flac
dce50f41234cd102e69318d19a2cd5cb *gd89-08-05d3t01.flac
8dd0a1a3b9a9dab91ff7af5819e5707f *gd89-08-05d3t02.flac
e37a861f6a7f9a8f4e76367a3c8fcd09 *gd89-08-05d3t03.flac
3a4c101e48e070d6fbbfeefe1e6639b7 *gd89-08-05d3t04.flac
369f9b58d57909ab01cb57c2164aa008 *gd89-08-05d3t05.flac

Comments
Add Comment
Other Sources (comments)
FOB Schoeps MK2 (spread) >... (2) set 2; SBD> CM> DAT> CD>... (0) SBD > MC > C > DAT > CD >... (0) flac16; Seamless fix... (1) flac16; AUD Source:... (0) flac16; Source:... (0) flac16; matrix of... (0) flac16; FOB/Schoeps... (0)
Date User Comment
02/08/2008 charlie miller Correction:
The cassette masters that I worked with were TDK SA-X90's for this night.