Browse Collections Artists Sources   Search Dates

Add Show    List Management    Help


Phish 08/13/96
Deer Creek Music Center, Noblesville, IN
Comments Add Comment    Source Collectors    Add to Collection    Add to Want List    History
Source # 89937 Other Sources
Entered by Jason Sobel
Checksums all_ffp
Disc Counts 2 / 2
Media Size
Date Circulated
Date Added
cuurent
02/07/2008
Source Summary Nakamichi CM300 & PZM 30D mix > Niles Audiomixer > D3; PCM-R300 > M-Audio Delta 1010Lt > Wave Lab 5.0 (BBE, Fades, L2Dither) > Traders Little Helper (flac8); Taped by Greg Holtz 
Source Information - Download Text | Download Zip
Phish
Deer Creek
Noblesville, IN
August 13th, 1996

Taper: Greg Holtz

Source: Nakamichi CM300 & PZM 30D mix-> Niles Audiomixer-> D3

Transfer: (By JAZ) DAT Master-> PCM-R300-> Coax-> M-Audio Delta 1010Lt-> Wave Lab 5.0, BBE, Fades, L2Dither-> Traders Little Helper flac8

Note: Another REAL CRISPY Phish show with a smokin second set.

Set I (Disk I)
1.Divided Sky
2.Tube
3.Tela
4.Maze
5.Fast Enough For You
6.My Old Home Place
7.Punch You in the Eye
8.Llama
9.Glide
10.Slave to the Traffic Light

Set II (Disk II)
11.AC/DC Bag
12.Lizards
13.Mike's Song->
14.Lifeboy->
15.Weekapaug Groove

(Disk III)
16.Somewhere Over the Rainbow*
17.Waste**
18.Train Song**
19.Strange Design**
20.Sweet Adeline
21.David Bowie

Encore:
22.Sleeping Monkey
23.Rocky Top

Note: * Page, solo on Theremin. ** Page on a smaller piano, Trey on an acoustic guitar, Mike on acoustic bass, and Fishman on a small drum set.

FLAC FINGERPRINT:
Phish1996-08-13trk01.flac:2d071a275052c2d35e74ef8ff1bd3dee
Phish1996-08-13trk02.flac:63613ce9b2cbd2d87b98a2945332fa6f
Phish1996-08-13trk03.flac:c824edae83e19d1d0e16a90ebb83b7e8
Phish1996-08-13trk04.flac:273d20c803fe803ec4e198e992a7c062
Phish1996-08-13trk05.flac:87fd5106174c77f1ee28705a55312b99
Phish1996-08-13trk06.flac:aa2becd0a8c5cb135d65b527c12e25ab
Phish1996-08-13trk07.flac:c20434465dccd8c1e841aaf1451c6c03
Phish1996-08-13trk08.flac:17a645e95a4ae4cc2e19eb766b59944e
Phish1996-08-13trk09.flac:43e483ebbf4b045f003cb7353fa583e2
Phish1996-08-13trk10.flac:4d74dd4ed73072b4e7c2925d7716074d
Phish1996-08-13trk11.flac:a7f54a177e997fafed04ed60284539c6
Phish1996-08-13trk12.flac:f0a5a7f0d72ddf0d2fc7bcc5a4a35250
Phish1996-08-13trk13.flac:1c1a55fb030e28cd44e732213aa288fc
Phish1996-08-13trk14.flac:5d786c46aa437b6ba1ac2bcf32b339e0
Phish1996-08-13trk15.flac:506348a3002927d722058cfdd09eceae
Phish1996-08-13trk16.flac:bfb2923c74807015b38fd88a3ca9cdcd
Phish1996-08-13trk17.flac:e040fbce5ecc5b000fc357eafda3fe38
Phish1996-08-13trk18.flac:94d50a2a0cfe4fae211cb4d79571d888
Phish1996-08-13trk19.flac:bb47814b2d36c896a62ce0a74fb9228e
Phish1996-08-13trk20.flac:1b16b4112930fe1b10ad8563d34bba55
Phish1996-08-13trk21.flac:29ea600f31c6daf3e5d3936340b5af74
Phish1996-08-13trk22.flac:bb7d974bcd86eda63b5402a612aa1b44
Phish1996-08-13trk23.flac:11caa078cbda7003d590a58a0b7c7733

SHNTOOL:
    length     expanded size   cdr  WAVE problems filename
    16:39.62      176369468    ---   --   ---xx   Phish1996-08-13trk01.flac
     4:01.35       42594764    ---   --   ---xx   Phish1996-08-13trk02.flac
     6:35.04       69687452    ---   --   ---xx   Phish1996-08-13trk03.flac
    11:07.44      117762332    ---   --   ---xx   Phish1996-08-13trk04.flac
     6:48.36       72055916    ---   --   ---xx   Phish1996-08-13trk05.flac
     3:03.11       32307116    ---   --   ---xx   Phish1996-08-13trk06.flac
     8:01.30       84919004    ---   --   ---xx   Phish1996-08-13trk07.flac
     5:05.68       53961980    ---   --   ---xx   Phish1996-08-13trk08.flac
     4:22.47       46327388    ---   --   ---xx   Phish1996-08-13trk09.flac
    12:35.25      133240844    ---   --   ---xx   Phish1996-08-13trk10.flac
    11:07.50      117776444    ---   --   ---xx   Phish1996-08-13trk11.flac
    10:28.57      110913308    ---   --   ---xx   Phish1996-08-13trk12.flac
    22:45.58      240922460    ---   --   ---xx   Phish1996-08-13trk13.flac
     8:00.14       84704972    ---   --   ---xx   Phish1996-08-13trk14.flac
     8:17.00       87670844    ---   --   ---xx   Phish1996-08-13trk15.flac
     2:03.64       21847772    ---   --   ---xx   Phish1996-08-13trk16.flac
     5:13.42       55312028    ---   --   ---xx   Phish1996-08-13trk17.flac
     3:17.36       34835516    ---   --   ---xx   Phish1996-08-13trk18.flac
     3:59.39       42251372    ---   --   ---xx   Phish1996-08-13trk19.flac
     2:07.53       22527500    ---   --   ---xx   Phish1996-08-13trk20.flac
    15:56.62      168784268    ---   --   ---xx   Phish1996-08-13trk21.flac
     5:00.22       52971788    ---   --   ---xx   Phish1996-08-13trk22.flac
     2:56.69       31208732    ---   --   ---xx   Phish1996-08-13trk23.flac
   179:36.28     1900953268 B                     (totals for 23 files, 0.5323 overall compression ratio)
Show Checksums
all_ffp
Phish1996-08-13trk01.flac:2d071a275052c2d35e74ef8ff1bd3dee
Phish1996-08-13trk02.flac:63613ce9b2cbd2d87b98a2945332fa6f
Phish1996-08-13trk03.flac:c824edae83e19d1d0e16a90ebb83b7e8
Phish1996-08-13trk04.flac:273d20c803fe803ec4e198e992a7c062
Phish1996-08-13trk05.flac:87fd5106174c77f1ee28705a55312b99
Phish1996-08-13trk06.flac:aa2becd0a8c5cb135d65b527c12e25ab
Phish1996-08-13trk07.flac:c20434465dccd8c1e841aaf1451c6c03
Phish1996-08-13trk08.flac:17a645e95a4ae4cc2e19eb766b59944e
Phish1996-08-13trk09.flac:43e483ebbf4b045f003cb7353fa583e2
Phish1996-08-13trk10.flac:4d74dd4ed73072b4e7c2925d7716074d
Phish1996-08-13trk11.flac:a7f54a177e997fafed04ed60284539c6
Phish1996-08-13trk12.flac:f0a5a7f0d72ddf0d2fc7bcc5a4a35250
Phish1996-08-13trk13.flac:1c1a55fb030e28cd44e732213aa288fc
Phish1996-08-13trk14.flac:5d786c46aa437b6ba1ac2bcf32b339e0
Phish1996-08-13trk15.flac:506348a3002927d722058cfdd09eceae
Phish1996-08-13trk16.flac:bfb2923c74807015b38fd88a3ca9cdcd
Phish1996-08-13trk17.flac:e040fbce5ecc5b000fc357eafda3fe38
Phish1996-08-13trk18.flac:94d50a2a0cfe4fae211cb4d79571d888
Phish1996-08-13trk19.flac:bb47814b2d36c896a62ce0a74fb9228e
Phish1996-08-13trk20.flac:1b16b4112930fe1b10ad8563d34bba55
Phish1996-08-13trk21.flac:29ea600f31c6daf3e5d3936340b5af74
Phish1996-08-13trk22.flac:bb7d974bcd86eda63b5402a612aa1b44
Phish1996-08-13trk23.flac:11caa078cbda7003d590a58a0b7c7733

Comments
Add Comment
Other Sources (comments)
FOB Schoeps CMC6/mk4 >... (8) AKG 3000; Fostex D-5 > U2A... (0) Microtech Gefell m300->... (0) Microtech Gefell m300 >... (0) Schoeps mk4/cmc6 > Sonosax... (0) set 2 only; B&K 4011s >... (0) flac16 48khz set 2... (0)
Date User Comment
03/03/2008 TWATTS My text file includes this statement: "A 2min patch exist between 10 and 14mins in the first set. This patch was made to the best of my ability as the only means to pull out a bit of digi noise."

Do we know which source was used to patch the Divided Sky. I can hear it, starting about 10:50 or so... Its a gradual fade into the new source and then back out...

Thanks,

Terry