Browse Collections Artists Sources   Search Dates

Add Show    List Management    Help


Grateful Dead 04/07/87
Meadowlands Arena, East Rutherford, NJ
Comments Add Comment    Source Collectors    Add to Collection    Add to Want List    History
Source # 89971 Other Sources
Entered by Matt Vernon
Checksums flac-md5 , ffp
Disc Counts 2 / 2
Media Size
Date Circulated
Date Added
02/10/2008
02/10/2008
Source Summary flac16; Source: WNEW-FM > unknown receiver > Onkyo TA-2048 > TDK SA-90's, with Dolby C on. Taped by Jon Pasternak. Transfer: MFC > Nakamichi DR-8 (Dolby C) > Audiophile 2496 analog-in > Soundforge > CD-Wave > TLH > FLAC. Transferred by Andrew F. 
  Archive
Source Information - Download Text | Download Zip
GRATEFUL DEAD
Brendan Byrne Arena
East Rutherford NJ
04-07-1987

Disc One (79:07)

01 crowd & tuning
02 Touch of Grey >
03 Minglewood Blues
04 Friend of the Devil
05 Beat it on Down the Line
06 Stagger Lee
07 Mama Tried >
08 Big River
09 West L.A. Fadeaway
10 bucket false start >
11 Hell in a Bucket >
12 Don't Ease Me In
-- set break --
13 crowd & tuning
14 Box of Rain
15 I Need a Miracle >
16 Bertha

Disc Two (72:12)

01 Ship of Fools
02 Women Are Smarter >
03 Drums >
04 Space >
05 Gimme Some Lovin' >
06 Morning Dew >
07 Throwing Stones >
08 Not Fade Away
-- encore --
09 crowd, tuning, radio talk
10 The Mighty Quinn

Source: WNEW-FM > unknown receiver > Onkyo TA-2048 > TDK SA-90's, with
Dolby C on. Taped by Jon Pasternak.

Transfer: MFC > Nakamichi DR-8 (Dolby C) > Audiophile 2496 analog-in >
Soundforge > CD-Wave > TLH > FLAC. Transferred by Andrew F.

Notes:
- Patches from ShnID-19284, as follows:
- Covers recording glitch, from 7:38 Minglewood (crowd) to 0:02 FOTD.
- Covers tape flip in Space from 3:29 to 3:34.
- Bob Weir station ID during start of Throwing Stones.
- Soundforge to make fades, adjust levels, add patches.
- TLH used for SBE-OK, FLAC compression, and checksums.

shntool

    length     expanded size   cdr  WAVE problems filename
     1:48.61       19194716    ---   --   ---xx   gd1987-04-07d1t01.flac
     6:16.02       66331148    ---   --   ---xx   gd1987-04-07d1t02.flac
     7:42.34       81576812    ---   --   ---xx   gd1987-04-07d1t03.flac
     9:27.23      100072940    ---   --   ---xx   gd1987-04-07d1t04.flac
     3:29.20       36914684    ---   --   ---xx   gd1987-04-07d1t05.flac
     6:26.06       68104556    ---   --   ---xx   gd1987-04-07d1t06.flac
     2:40.20       28271084    ---   --   ---xx   gd1987-04-07d1t07.flac
     5:16.62       55888268    ---   --   ---xx   gd1987-04-07d1t08.flac
     8:42.58       92217260    ---   --   ---xx   gd1987-04-07d1t09.flac
     1:12.39       12792572    ---   --   ---xx   gd1987-04-07d1t10.flac
     6:20.70       67196684    ---   --   ---xx   gd1987-04-07d1t11.flac
     3:29.10       36891164    ---   --   ---xx   gd1987-04-07d1t12.flac
     1:27.55       15476204    ---   --   ---xx   gd1987-04-07d1t13.flac
     5:09.71       54674636    ---   --   ---xx   gd1987-04-07d1t14.flac
     3:14.54       34348652    ---   --   ---xx   gd1987-04-07d1t15.flac
     6:22.71       67551836    ---   --   ---xx   gd1987-04-07d1t16.flac
     9:32.29      100969052    ---   --   ---xx   gd1987-04-07d2t01.flac
     7:15.05       76745804    ---   --   ---xx   gd1987-04-07d2t02.flac
    10:05.05      106733804    ---   --   ---xx   gd1987-04-07d2t03.flac
    11:11.58      118500860    ---   --   ---xx   gd1987-04-07d2t04.flac
     4:49.07       50996108    ---   --   ---xx   gd1987-04-07d2t05.flac
    10:34.10      111861164    ---   --   ---xx   gd1987-04-07d2t06.flac
     8:28.00       89611244    ---   --   ---xx   gd1987-04-07d2t07.flac
     5:02.12       53301068    ---   --   ---xx   gd1987-04-07d2t08.flac
     0:46.52        8236748    ---   --   ---xx   gd1987-04-07d2t09.flac
     4:28.30       47345804    ---   --   ---xx   gd1987-04-07d2t10.flac
   151:20.39     1601804872 B                     (totals for 26 files, 0.6463 overall compression ratio)

There were no sector boundary errors.
Show Checksums
flac-md5
02632aa56cadcb056872a7e2a271d531 *gd1987-04-07d1t01.flac
790b13ca5571d6d5d7d4fc8fb3b51781 *gd1987-04-07d1t02.flac
ad0a1179c5315c47a03bd6541314beaa *gd1987-04-07d1t03.flac
454ca21d7aa4ff73faed186b7ec1f12c *gd1987-04-07d1t04.flac
5c3f28f3ae74dfe93e00cdf842e0ed6b *gd1987-04-07d1t05.flac
7de91d07636040eb83f4af6265ff7bfe *gd1987-04-07d1t06.flac
46fe969a932d65314b2ebc39b279745f *gd1987-04-07d1t07.flac
5668a483171df1eae2d443e69b8cbe2b *gd1987-04-07d1t08.flac
3d360d9346f04324d8696c43584896ee *gd1987-04-07d1t09.flac
8eb57f49cf70f7f860f82c0e74989096 *gd1987-04-07d1t10.flac
af51d0f2d41162e27a872ed5651c35fb *gd1987-04-07d1t11.flac
2416e33d35f0a0afc83b7aa0df0c82df *gd1987-04-07d1t12.flac
6e9c7db4222baaf171f7c232095ab727 *gd1987-04-07d1t13.flac
9735ed527853eeb73f34127df0d8daba *gd1987-04-07d1t14.flac
ca17691cad8019b1afbf4d9058a28996 *gd1987-04-07d1t15.flac
18d55f45ab21991bf26a48df2fc9e22c *gd1987-04-07d1t16.flac
16c24f50250566ac9615d54e0e81c97a *gd1987-04-07d2t01.flac
eb3153d686e556511ae0e8e63668cd17 *gd1987-04-07d2t02.flac
2edb7b336e885dff5f63ccbe8c97d62b *gd1987-04-07d2t03.flac
8e15577541590568d8c63523300c345c *gd1987-04-07d2t04.flac
143c7ec7619c0aee5e23fb57c29c731c *gd1987-04-07d2t05.flac
f62ef3c135a0f4a6272c22d87290ae25 *gd1987-04-07d2t06.flac
4784872a217451dda82e2e2b438b9c32 *gd1987-04-07d2t07.flac
3cb5f1490ca874f79ce98a542961b0e0 *gd1987-04-07d2t08.flac
d5343b6be140376c6f8bbe6595e0bc28 *gd1987-04-07d2t09.flac
309893e2d11c37e4eac7ce68ba23cfbe *gd1987-04-07d2t10.flac
ffp
gd1987-04-07d1t01.flac:5ef9b1202a176d942c3e5f9b2df759d6
gd1987-04-07d1t02.flac:c1beaa6ae6cab669af4f5df13b30d422
gd1987-04-07d1t03.flac:da5478260a004a695b832a5827fefcb1
gd1987-04-07d1t04.flac:7976f1c4d5e74bb030b52ec44a9917b0
gd1987-04-07d1t05.flac:65e09c3b3daaf8d05051acbcb7f5a24b
gd1987-04-07d1t06.flac:d72eff5d9a531390f7da3d3b18e02e39
gd1987-04-07d1t07.flac:4f0c214b8e52305b831738d97ff40e3a
gd1987-04-07d1t08.flac:c208f7017902422727f647dec29ebaf8
gd1987-04-07d1t09.flac:2bafb199dfbee42ff9ec15998ceea780
gd1987-04-07d1t10.flac:af94ed2f6b02e1dbf77b66665ec5dce5
gd1987-04-07d1t11.flac:e8dc842ff5985fed9fb29afa7c323116
gd1987-04-07d1t12.flac:79744e436f2205f528b0963052c98681
gd1987-04-07d1t13.flac:42d62357f8fa126e4f93f20cbe49eddf
gd1987-04-07d1t14.flac:de418ac09edd3b30878cc838f0018d93
gd1987-04-07d1t15.flac:3abb7df1368572d286bcac9e1375503d
gd1987-04-07d1t16.flac:95b3347d240e9bebf7f5db37db85be05
gd1987-04-07d2t01.flac:5b0f92a982851338948d68489ad54397
gd1987-04-07d2t02.flac:57fdddced444a84fa0789d26c5f67645
gd1987-04-07d2t03.flac:f2cea92c211f2a82a26701babee6aec4
gd1987-04-07d2t04.flac:b22c152575a975c22399cfbaf5315705
gd1987-04-07d2t05.flac:0501ab5e7f00f77fc41ff0c9a3e6cfca
gd1987-04-07d2t06.flac:7c8f799547c33459036cc3bd247ac578
gd1987-04-07d2t07.flac:80fc6fb3fdc24f3d33ea71345867581e
gd1987-04-07d2t08.flac:813c7addda30aa61ba402e1a48a809cb
gd1987-04-07d2t09.flac:ec8378c9dd8ef8e31012648329d953ac
gd1987-04-07d2t10.flac:266e22d03bc1fa45e514ff28b63a2e4d

Comments
Add Comment
Other Sources (comments)
AUD>MC>DAT>CDR; Schoeps... (0) Source:... (3) flac16; Source:... (0) flac16; taper : Joe... (0) flac16; Nakamichi... (0) flac24; Source:... (0) flac24; Set 2... (0) flac24; Recording... (0) flac16; Recording... (0)
Date User Comment