Browse Collections Artists Sources   Search Dates

Add Show    List Management    Help


Grateful Dead 11/28/80
Lakeland Civic Center, Lakeland, FL
Comments Add Comment    Source Collectors    Add to Collection    Add to Want List    History
Source # 90013 Other Sources
Entered by Matt Vernon
Checksums ffp , flac-md5
Disc Counts 2 / 2
Media Size
Date Circulated
Date Added
02/15/2008
02/15/2008
Source Summary flac16; Recording Info: (FOB) Nakamichi 700 (With Bass EQ) -> Cassette Master (Sony D5M/TDK SA-X90/Dolby B) Transfer Info: Cassette Master (Nakamichi DR-1/Dolby B) -> Sound Devices 744T (24bit/96k) -> Samplitude Professional v10.02 -> FLAC/16 All Transfers and Mastering By Charlie Miller 
  Archive
Source Information - Download Text | Download Zip
Grateful Dead - November 28, 1980
Lakeland Civic Center - Lakeland, FL

Recording Info:
(FOB) Nakamichi 700 (With Bass EQ) -> Cassette Master (Sony D5M/TDK SA-X90/Dolby B)

Transfer Info:
Cassette Master (Nakamichi DR-1/Dolby B) -> Sound Devices 744T (24bit/96k) ->
Samplitude Professional v10.02 -> FLAC/16
(2 Discs Audio / 2 Discs FLAC)

All Transfers and Mastering By Charlie Miller
[email protected]
February 15, 2008

Notes:
-- Disc change is seamless
-- Thanks to Bob Wagner for lending me his masters

Set 1:
d1t01 - Tuning
d1t02 - Jack Straw
d1t03 - Peggy-O
d1t04 - Little Red Rooster
d1t05 - Tennessee Jed
d1t06 - Passenger
d1t07 - Deep Elem Blues
d1t08 - Looks Like Rain
d1t09 - Deal

Set 2:
d1t10 - Tuning
d1t11 - Feel Like A Stranger
d2t01 - To Lay Me Down ->
d2t02 - Let It Grow ->
d2t03 - Terrapin Station ->
d2t04 - Drums ->
d2t05 - Space ->
d2t06 - Not Fade Away ->
d2t07 - Black Peter ->
d2t08 - Sugar Magnolia

Encore:
d2t09 - U.S. Blues


SHNTOOL OUTPUT:
    length     expanded size   cdr  WAVE problems filename
     5:33.16       58778876    ---   --   -----   gd80-11-28d1t01.wav
     6:18.66       66834476    ---   --   -----   gd80-11-28d1t02.wav
     8:28.62       89757068    ---   --   -----   gd80-11-28d1t03.wav
    10:00.64      105990572    ---   --   -----   gd80-11-28d1t04.wav
    10:28.26      110840396    ---   --   -----   gd80-11-28d1t05.wav
     5:48.06       61401356    ---   --   -----   gd80-11-28d1t06.wav
     5:52.27       62156348    ---   --   -----   gd80-11-28d1t07.wav
     8:08.33       86160860    ---   --   -----   gd80-11-28d1t08.wav
     6:53.52       72975548    ---   --   -----   gd80-11-28d1t09.wav
     2:04.39       21965372    ---   --   -----   gd80-11-28d1t10.wav
     9:32.05      100912604    ---   --   -----   gd80-11-28d1t11.wav
     9:01.31       95505356    ---   --   -----   gd80-11-28d2t01.wav
    11:11.56      118496156    ---   --   -----   gd80-11-28d2t02.wav
    11:57.71      126645836    ---   --   -----   gd80-11-28d2t03.wav
    10:09.57      107561708    ---   --   -----   gd80-11-28d2t04.wav
     5:22.31       56873756    ---   --   -----   gd80-11-28d2t05.wav
     5:49.21       61613036    ---   --   -----   gd80-11-28d2t06.wav
     9:25.09       99687212    ---   --   -----   gd80-11-28d2t07.wav
    10:20.29      109436252    ---   --   -----   gd80-11-28d2t08.wav
     5:26.21       57555836    ---   --   -----   gd80-11-28d2t09.wav
   157:53.47     1671148624 B                     (totals for 20 files)
Show Checksums
ffp
gd80-11-28d1t01.flac:bab299866631072fccadb08026667b4a
gd80-11-28d1t02.flac:0e111d4660d9ae8c5ab84f5924eee8c9
gd80-11-28d1t03.flac:5afa85e5f355d94543a22a3d51b48fd6
gd80-11-28d1t04.flac:fad69bcfaa0652fed8a5e5ba0b923756
gd80-11-28d1t05.flac:982b2c96e19132349d7acc141710f6e6
gd80-11-28d1t06.flac:a95e0d2fa0b636011456e193df92b7d5
gd80-11-28d1t07.flac:270135c67d622c1050364773e625ea36
gd80-11-28d1t08.flac:5d60ba8444a0645c499c47c6b89e4521
gd80-11-28d1t09.flac:aaee7c7e1e1d9d0ed5cfb5ffe4abcf5c
gd80-11-28d1t10.flac:65e6416e6ca93ee4337c902367f65420
gd80-11-28d1t11.flac:4526c35a1de16d7ef50a17f41731a7b2
gd80-11-28d2t01.flac:ee5dcb539e0bb259dae266b00187073d
gd80-11-28d2t02.flac:a27c72c47163d6e8b2a9fc36c4226e97
gd80-11-28d2t03.flac:ddf1385c5816dbc4386a1cf8c719d1c0
gd80-11-28d2t04.flac:a43f423cc1cd7d3b81c7b020af6163d1
gd80-11-28d2t05.flac:e008abf4ef445834b5e867105fd2b9cb
gd80-11-28d2t06.flac:ead6d3ee91345b817a719be20ce61a19
gd80-11-28d2t07.flac:3a25b47aae9ea238e7d484e56723fea7
gd80-11-28d2t08.flac:d178730b405c35f3c48542445f7ea8eb
gd80-11-28d2t09.flac:ac638db685cf8059015a37f4ababe82b
flac-md5
8815e59eee7ca0b99b6c1af2ce4a4839 *gd80-11-28d1t01.flac
7065108ae085d8aa233bf24a548af4db *gd80-11-28d1t02.flac
c7971eb2800d1bcc3b98fc25fd5bf682 *gd80-11-28d1t03.flac
80466fe67bfb006755d980a8532c123d *gd80-11-28d1t04.flac
e043c80ce75ecd9ca6a857b7265245e7 *gd80-11-28d1t05.flac
c120cf66073bb194a39e3004ab9d5100 *gd80-11-28d1t06.flac
0c7968d9cabd6c63abcf066ce6a579fa *gd80-11-28d1t07.flac
bf4c5944c68e3f72195756808aef637f *gd80-11-28d1t08.flac
012a2a5f7c62fd9a0fedacd59cf9cfd9 *gd80-11-28d1t09.flac
0430ac56f467293383d11eef8b7b3a35 *gd80-11-28d1t10.flac
b005483c1a5bb52e912c8f9947b97778 *gd80-11-28d1t11.flac
c8a2b8d7d4dfec259038255c799a1ae7 *gd80-11-28d2t01.flac
68fe372c617929093c1f8a3ee04f680d *gd80-11-28d2t02.flac
87ff2591206969b9477a10379374d99b *gd80-11-28d2t03.flac
81e2ec6ee049330788c23abefc0434b7 *gd80-11-28d2t04.flac
55edaf532ee46bcf3ff40997751078d9 *gd80-11-28d2t05.flac
0f38c49f867c9146586af90e07ae2474 *gd80-11-28d2t06.flac
c3f01dfb1f7175493723928968811e51 *gd80-11-28d2t07.flac
f0a2f8aecc6d11c4a804e425088115a0 *gd80-11-28d2t08.flac
5136ac840b86a440c1fc26359a5463b2 *gd80-11-28d2t09.flac

Comments
Add Comment
Other Sources (comments)
Master FOB Audience... (0) Source: Soundboard Cassette... (6) flac16; Source... (0) flac16; Source FOB... (0) flac16; Matrix 2... (0) flac16; Source:... (0) DTS Audio 5.1; SBD... (0) flac16; Recording by... (0) flac24; Recording by... (0)
Date User Comment