Browse Collections Artists Sources   Search Dates

Add Show    List Management    Help


Grateful Dead 01/15/79
Springfield Civic Center, Springfield, MA
Comments Add Comment    Source Collectors    Add to Collection    Add to Want List    History
Source # 90100 Other Sources
Entered by Matt Vernon
Checksums flac-md5 , ffp
Disc Counts 6 / 0
Media Size
Date Circulated
Date Added
02/21/2008
02/21/2008
Source Summary flac24; Recording Info: (FOB) Nakamichi 300/CP1 -> Cassette Master (Sony TC-158/Maxell UDXL-I90/Dolby B) Transfer Info: Cassette Master (Nakamichi DR-1/Dolby B) -> Sound Devices 744T (24bit/96k) -> Samplitude Professional v10.02 -> Cool Edit Pro v2.0 -> FLAC/24 All Transfers and Mastering By Charlie Miller 
  Archive
Source Information - Download Text | Download Zip
Grateful Dead - January 15, 1979
Civic Center Arena - Springfield, MA
** THIS IS A 24-BIT/96K RECORDING**

Recording Info:
(FOB) Nakamichi 300/CP1 -> Cassette Master (Sony TC-158/Maxell UDXL-I90/Dolby B)

Transfer Info:
Cassette Master (Nakamichi DR-1/Dolby B) -> Sound Devices 744T (24bit/96k) ->
Samplitude Professional v10.02 -> Cool Edit Pro v2.0 -> FLAC/24
(1 DVD FLAC)

All Transfers and Mastering By Charlie Miller
[email protected]
February 19, 2008

Notes:
-- Set 2 is seamless
-- Recorded by Steve Rolfe (Section 61 Row S Seat 7)
-- Thanks to Steve Rolfe for lending me his masters
-- Thanks to Joe B. Jones for his help with the pitch correction
-- ** THIS IS A 24-BIT/96K RECORDING**

Set 1:
s1t01 - Tuning
s1t02 - Jack Straw
s1t03 - Jack-A-Roe
s1t04 - Cassidy
s1t05 - Row Jimmy
s1t06 - Mama Tried ->
s1t07 - Mexicali Blues
s1t08 - Stagger Lee
s1t09 - Passenger
s1t10 - Deal

Set 2:
s2t01 - Tuning/Where's Phil?
s2t02 - I Need A Miracle ->
s2t03 - Shakedown Street
s2t04 - From The Heart Of Me
s2t05 - Terrapin Station ->
s2t06 - Playing In The Band ->
s2t07 - Drums ->
s2t08 - Space ->
s2t09 - Playing In The Band ->
s2t10 - Casey Jones

Encore:
s2t11 - Johnny B. Goode


SHNTOOL OUTPUT:
    length     expanded size   cdr  WAVE problems filename
     2:18.138      79567532    cxx   --   -----   gd79-01-15s1t01.wav
     7:26.398     257125064    cxx   --   -----   gd79-01-15s1t02.wav
     7:25.078     256364744    cxx   --   -----   gd79-01-15s1t03.wav
     9:03.444     313023788    cxx   --   -----   gd79-01-15s1t04.wav
    13:38.466     471436460    cxx   --   -----   gd79-01-15s1t05.wav
     2:33.859      88622942    cxx   --   -----   gd79-01-15s1t06.wav
     7:28.100     258105872    cxx   --   -----   gd79-01-15s1t07.wav
     9:50.106     339901100    cxx   --   -----   gd79-01-15s1t08.wav
     7:01.199     242610554    cxx   --   -----   gd79-01-15s1t09.wav
     7:24.257     255892094    cxx   --   -----   gd79-01-15s1t10.wav
     3:14.528     112048400    cxx   --   -----   gd79-01-15s2t01.wav
     6:49.622     235942544    cxx   --   -----   gd79-01-15s2t02.wav
    13:07.921     453842654    cxx   --   -----   gd79-01-15s2t03.wav
     4:53.502     169057196    cxx   --   -----   gd79-01-15s2t04.wav
    14:21.736     496359752    cxx   --   -----   gd79-01-15s2t05.wav
    18:07.878     626617772    cxx   --   -----   gd79-01-15s2t06.wav
     7:58.579     275661662    cxx   --   -----   gd79-01-15s2t07.wav
     7:59.912     276429584    cxx   --   -----   gd79-01-15s2t08.wav
     6:02.749     208943582    cxx   --   -----   gd79-01-15s2t09.wav
     7:06.848     245864720    cxx   --   -----   gd79-01-15s2t10.wav
     4:31.597     156440030    cxx   --   -----   gd79-01-15s2t11.wav
   168:23.919    5819858046 B                     (totals for 21 files)
Show Checksums
flac-md5
bb2798d4e5f381e2c148193849c46d27 *gd79-01-15s1t01.flac
4685d4a45eba0b83ea077b5db81608a0 *gd79-01-15s1t02.flac
b15ba4549d583efb14053462d2fdace1 *gd79-01-15s1t03.flac
82dbbb7b2245589ad6dd6f30b05bedde *gd79-01-15s1t04.flac
d7e0b947a4032c07cf2020d43b2d7e51 *gd79-01-15s1t05.flac
1180b640bffccf9a3fed060f5408534c *gd79-01-15s1t06.flac
b2a0d6f6a4ca835e5c76c9d11689f860 *gd79-01-15s1t07.flac
e33341bd4dc826d2b6644344239b446b *gd79-01-15s1t08.flac
4dfb8308bc2312503b5ad7d00d82366d *gd79-01-15s1t09.flac
e6f886e34982bb8ddb1a06755f04b6f7 *gd79-01-15s1t10.flac
618cd993c47a3ec5118e6137ad2c1eed *gd79-01-15s2t01.flac
6437c9876a53cf4d1d087c1193171d72 *gd79-01-15s2t02.flac
d64f90f13eaaf6dd71d07fd21db1fdf0 *gd79-01-15s2t03.flac
8605118eea08d5c44d24fcfefe3fb10f *gd79-01-15s2t04.flac
be97ba58354c7d563e0ef3350eafe3d1 *gd79-01-15s2t05.flac
172b7c901d4ac52a09f418526f85ac27 *gd79-01-15s2t06.flac
5ea6b9c73e55559b9b556759aaf72163 *gd79-01-15s2t07.flac
287252db92f819db5e56e7afc490d24d *gd79-01-15s2t08.flac
daa9e21b14b45bed6c3d5293ee9456b4 *gd79-01-15s2t09.flac
daccd050a9503cf005c5fd09bace4ef6 *gd79-01-15s2t10.flac
3bf4783aa212f83877f5f80ebaae6d19 *gd79-01-15s2t11.flac
ffp
gd79-01-15s1t01.flac:c84ee467f9640302335e13c9c3ff99c0
gd79-01-15s1t02.flac:3ba2150581cd0e6f2aa4bea08352560a
gd79-01-15s1t03.flac:47d15252165b80e9b40947e05da02873
gd79-01-15s1t04.flac:5cbe1b2f843fe0d223bef576355ec6e8
gd79-01-15s1t05.flac:1e16a10e7d6cdce94181011ba6dd22e2
gd79-01-15s1t06.flac:79bef974c5bdc4004e82def7eb6c0017
gd79-01-15s1t07.flac:ed21bf6da27f44b337b197e3c0fcfc37
gd79-01-15s1t08.flac:f8a8fa3d38fd9cc6423d84a41cfea7fd
gd79-01-15s1t09.flac:e521bc24749b1f25cdf4281db332eeee
gd79-01-15s1t10.flac:1e9cb320348e852e94628dd03977be18
gd79-01-15s2t01.flac:7a8b1833d0534a08fcc7763d97419065
gd79-01-15s2t02.flac:a445bd48974852413412ca366bf7187b
gd79-01-15s2t03.flac:bdd0a3fbaf8929d0bbedd705d689e400
gd79-01-15s2t04.flac:be4f59b63f4b2f541977e658cf390a18
gd79-01-15s2t05.flac:cb11a2fef3c6a410b3b24359d7e46690
gd79-01-15s2t06.flac:ee43ed3b6244664d69643ab68abcd466
gd79-01-15s2t07.flac:ad3b542f6951a0dbe7d65ced5c6ccb17
gd79-01-15s2t08.flac:0081029fda710403047c1b000f42f245
gd79-01-15s2t09.flac:deb0f8449ab0c457b268526e9789b1a4
gd79-01-15s2t10.flac:eb7bbee970bb48072b3f7646b5bc002d
gd79-01-15s2t11.flac:0bc4c23d1c1dc82ba5192571ee77f265

Comments
Add Comment
Other Sources (comments)
Recording by Steve Rolfe:... (0) Recording by Steve Rolfe:... (3) flac16; Recording by... (0) flac16; Recording... (0) flac16; Sick Bits... (2) flac16; Recorded by... (0) flac24; Recorded by... (0)
Date User Comment