Browse Collections Artists Sources   Search Dates

Add Show    List Management    Help


Grateful Dead 11/29/80
Alligator Alley Gymnasium, U of Florida, Gainesville, FL
Comments Add Comment    Source Collectors    Add to Collection    Add to Want List    History
Source # 90104 Other Sources
Entered by Matt Vernon
Checksums ffp , flac-md5
Disc Counts 2 / 3
Media Size
Date Circulated
Date Added
02/21/2008
02/21/2008
Source Summary flac16; Recording Info: (FOB) Nakamichi 700 (With Bass EQ) -> Cassette Master (Sony D5M/TDK SA-X90/Dolby B) Transfer Info: Cassette Master (Nakamichi DR-1/Dolby B) -> Sound Devices 744T (24bit/96k) -> Samplitude Professional v10.02 -> FLAC/16 All Transfers and Mastering By Charlie Miller 
  Archive
Source Information - Download Text | Download Zip
Grateful Dead - November 29, 1980
Alligator Alley Gym - Gainesville, FL

Recording Info:
(FOB) Nakamichi 700 (With Bass EQ) -> Cassette Master (Sony D5M/TDK SA-X90/Dolby B)

Transfer Info:
Cassette Master (Nakamichi DR-1/Dolby B) -> Sound Devices 744T (24bit/96k) ->
Samplitude Professional v10.02 -> FLAC/16
(3 Discs Audio / 2 Discs FLAC)

All Transfers and Mastering By Charlie Miller
[email protected]
February 20, 2008

Patch Info:
(FOB) Beyer M-160 -> Cassette Master -> Alesis Masterlink -> CD supplies:
Truckin' (4:38 - 4:56)
Good Lovin' (5:17 - 5:29)

Notes:
-- Set 2 is seamless
-- Thanks to Bob Wagner for lending me his masters
-- Patch source recorded by Jim Wise (shnid=2409)

Set 1:
d1t01 - Tuning
d1t02 - Alabama Getaway ->
d1t03 - The Promised Land
d1t04 - Candyman
d1t05 - New Minglewood Blues
d1t06 - Row Jimmy
d1t07 - Mama Tried ->
d1t08 - Mexicali Blues
d1t09 - Althea ->
d1t10 - Lost Sailor ->
d1t11 - Saint Of Circumstance ->
d1t12 - Don't Ease Me In

Set 2:
d2t01 - Tuning
d2t02 - Shakedown Street ->
d2t03 - Franklin's Tower ->
d2t04 - Estimated Prophet ->
d2t05 - He's Gone ->
d2t06 - Truckin' ->
d2t07 - Drums ->
d3t01 - Space ->
d3t02 - The Other One ->
d3t03 - Stella Blue ->
d3t04 - Good Lovin'

Encore:
d3t05 - Casey Jones


SHNTOOL OUTPUT:
    length     expanded size   cdr  WAVE problems filename
     2:25.10       25601564    ---   --   -----   gd80-11-29d1t01.wav
     4:28.29       47343452    ---   --   -----   gd80-11-29d1t02.wav
     5:14.41       55486076    ---   --   -----   gd80-11-29d1t03.wav
     8:44.58       92570060    ---   --   -----   gd80-11-29d1t04.wav
     9:48.69      103885532    ---   --   -----   gd80-11-29d1t05.wav
    11:48.17      124931228    ---   --   -----   gd80-11-29d1t06.wav
     2:31.41       26732876    ---   --   -----   gd80-11-29d1t07.wav
     6:54.15       73064924    ---   --   -----   gd80-11-29d1t08.wav
     8:25.46       89190236    ---   --   -----   gd80-11-29d1t09.wav
     6:36.46       69962636    ---   --   -----   gd80-11-29d1t10.wav
     6:37.13       70061420    ---   --   -----   gd80-11-29d1t11.wav
     4:01.46       42620636    ---   --   -----   gd80-11-29d1t12.wav
     1:24.28       14883500    ---   --   -----   gd80-11-29d2t01.wav
     9:59.15      105698924    ---   --   -----   gd80-11-29d2t02.wav
     8:00.18       84714380    ---   --   -----   gd80-11-29d2t03.wav
    10:31.10      111331964    ---   --   -----   gd80-11-29d2t04.wav
    12:42.23      134470940    ---   --   -----   gd80-11-29d2t05.wav
     9:07.23       96544940    ---   --   -----   gd80-11-29d2t06.wav
    14:15.47      150932588    ---   --   -----   gd80-11-29d2t07.wav
     5:29.46       58143836    ---   --   -----   gd80-11-29d3t01.wav
     7:16.56       77042156    ---   --   -----   gd80-11-29d3t02.wav
    10:28.73      110950940    ---   --   -----   gd80-11-29d3t03.wav
     9:00.12       95284268    ---   --   -----   gd80-11-29d3t04.wav
     5:55.33       62699660    ---   --   -----   gd80-11-29d3t05.wav
   181:47.65     1924148736 B                     (totals for 24 files)
Show Checksums
ffp
gd80-11-29d1t01.flac:bb3ab82a7363272ca52d5d47e4325bda
gd80-11-29d1t02.flac:5d791dba283cddbdd2c8346f6ed9a0c2
gd80-11-29d1t03.flac:35917f9141a5f662df28815d5a93b432
gd80-11-29d1t04.flac:a5af24d306ae6830ff23f1cdf38e37e6
gd80-11-29d1t05.flac:f2d7c6211fae11b971c8e32661fb4795
gd80-11-29d1t06.flac:89840695726cbd1a144d084a52c024fb
gd80-11-29d1t07.flac:fb7de6b52f8d94f6ec05af1b1aed1a02
gd80-11-29d1t08.flac:a9bda36a9cb88f7dbce7905fe93d4044
gd80-11-29d1t09.flac:f61bb16f56543db8cd2f779e325b55bd
gd80-11-29d1t10.flac:f840aff24293f0bdc4050102d290a20f
gd80-11-29d1t11.flac:ed3934f512823592f80943f23ccc2f0a
gd80-11-29d1t12.flac:165d5aeb78dc67c124435d032a92f58b
gd80-11-29d2t01.flac:1a53072c953cf54ba2c09eded1a895e7
gd80-11-29d2t02.flac:b7796b13a05b17a66fec2a4d6e560eb5
gd80-11-29d2t03.flac:98c7f5839bdeb8c049db2fb562e9808a
gd80-11-29d2t04.flac:40b9ca77e4fa28ec0d6b751f5d193fbb
gd80-11-29d2t05.flac:d00fa91105e1ea9585546ab016cfb1f2
gd80-11-29d2t06.flac:cba93ad843031253121b4f2e45f391bb
gd80-11-29d2t07.flac:6bac543816f41049158ff7493288ca9d
gd80-11-29d3t01.flac:287b98f26a23897b08f5b41be0600da9
gd80-11-29d3t02.flac:6e1f99f561cfc1ba379c18081b0dd65e
gd80-11-29d3t03.flac:434918b26551a2de113443a34f939377
gd80-11-29d3t04.flac:c85514e575a549970f8dee3c623b38d4
gd80-11-29d3t05.flac:6a1e711e8e87f6d50ca131386e767507
flac-md5
bfd05ed0dba6e75e80dbc1633b3b7909 *gd80-11-29d1t01.flac
03e522453a07570cc86ff1a0a7349947 *gd80-11-29d1t02.flac
def43baf690274f2ab7c4ff8f449efc4 *gd80-11-29d1t03.flac
b2efdaa564b369f90bbcbaa769f0cc30 *gd80-11-29d1t04.flac
9d06ef3d595b7b646c2c19c7ed49ebf4 *gd80-11-29d1t05.flac
e08b6d6d568b7da58867767fc066e48d *gd80-11-29d1t06.flac
42c81fc84084a075c365f16c9d5641b0 *gd80-11-29d1t07.flac
37f68df3d335af5bd6023bece4fc7ae9 *gd80-11-29d1t08.flac
2b8a02038d1511cff960916bbd912dd1 *gd80-11-29d1t09.flac
7a228d286b19a6ce243600272cd2da86 *gd80-11-29d1t10.flac
090cb15d965df676afd8833f93aca167 *gd80-11-29d1t11.flac
31b9c5126032d77f9c8b2379aeb71551 *gd80-11-29d1t12.flac
ef309e04cedbfa7e9ef8600123d52109 *gd80-11-29d2t01.flac
06d5852da214ace38d48b535e81ec48d *gd80-11-29d2t02.flac
9d01b0731a78aaf5d6bd8dc193377743 *gd80-11-29d2t03.flac
c8f7ccb036ab8c600807c00eed3a00d2 *gd80-11-29d2t04.flac
adbac18642d00345aa7a96eedb3f99ea *gd80-11-29d2t05.flac
fe8915b428843edbc9ff31f0fe441528 *gd80-11-29d2t06.flac
288a4920ae9710a668baa387775229d1 *gd80-11-29d2t07.flac
bb4e5208ee72034a5edb3e6e7c55337b *gd80-11-29d3t01.flac
94ce86ced02956136f5af02224e91443 *gd80-11-29d3t02.flac
5715268aaa07a9ac59e73718b5a4887f *gd80-11-29d3t03.flac
86557943c294546696f22f18c2116719 *gd80-11-29d3t04.flac
6ea310b49641f86ef82a006b946a49c6 *gd80-11-29d3t05.flac

Comments
Add Comment
Other Sources (comments)
no source info; via D. Barrick (2) Recording by Jim Wise: FOB... (3) flac16; Recording by... (1) flac16; Recording... (0) flac24; Recorded... (0) flac16/48kHz;... (0) flac24; Cassette... (0) flac24; AUD: Unknown... (0) flac16; AUD: Unknown... (0) flac24; Set 2... (0) flac16; Set 2... (0)
Date User Comment