Browse Collections Artists Sources   Search Dates

Add Show    List Management    Help


Grateful Dead 07/08/87
Roanoke Civic Center, Roanoke, VA
Comments Add Comment    Source Collectors    Add to Collection    Add to Want List    History
Source # 90146 Other Sources
Entered by Matt Vernon
Checksums ffp , flac-md5
Disc Counts 2 / 3
Media Size
Date Circulated
Date Added
02/22/2008
02/22/2008
Source Summary flac16; Recording Info: SBD -> Cassette Master -> Dat -> FLAC Transfer Info: FLAC -> Samplitude Professional v10.02 -> FLAC All Transfers and Mastering By Charlie Miller 
  Archive
Source Information - Download Text | Download Zip
Grateful Dead - July 8, 1987
Roanoke Civic Center - Roanoke, VA

Recording Info:
SBD -> Cassette Master -> Dat -> FLAC

Transfer Info:
FLAC -> Samplitude Professional v10.02 -> FLAC
(3 Discs Audio / 2 Discs FLAC)

All Transfers and Mastering By Charlie Miller
[email protected]
February 21, 2008

Notes:
-- Set 2 is seamless
-- This is from Healy's Ultra Matrix mix
-- Show will fit onto 2 discs if you put Scarlet > Fire on disc 1
-- Thanks to Peter Lavezzoli for the discs

Set 1:
d1t01 - Tuning
d1t02 - Hell In A Bucket ->
d1t03 - Sugaree
d1t04 - It's All Over Now
d1t05 - Dupree's Diamond Blues
d1t06 - Never Trust A Woman
d1t07 - When I Paint My Masterpiece
d1t08 - Big Railroad Blues
d1t09 - Let It Grow

Set 2:
d2t01 - Scarlet Begonias ->
d2t02 - Fire On The Mountain
d2t03 - Estimated Prophet ->
d2t04 - He's Gone ->
d2t05 - Drums ->
d3t01 - Space ->
d3t02 - Crazy Fingers ->
d3t03 - Truckin' ->
d3t04 - Comes A Time ->
d3t05 - Sugar Magnolia

Encore:
d3t06 - Black Muddy River


SHNTOOL OUTPUT:
    length     expanded size   cdr  WAVE problems filename
     1:03.32       11188508    ---   --   -----   gd87-07-08d1t01.wav
     5:56.55       62927804    ---   --   -----   gd87-07-08d1t02.wav
     9:13.29       97617452    ---   --   -----   gd87-07-08d1t03.wav
     9:26.02       99847148    ---   --   -----   gd87-07-08d1t04.wav
     8:40.13       91758620    ---   --   -----   gd87-07-08d1t05.wav
     5:14.70       55554284    ---   --   -----   gd87-07-08d1t06.wav
     4:57.54       52517852    ---   --   -----   gd87-07-08d1t07.wav
     3:48.44       40322732    ---   --   -----   gd87-07-08d1t08.wav
    11:27.67      121344428    ---   --   -----   gd87-07-08d1t09.wav
     8:26.07       89274908    ---   --   -----   gd87-07-08d2t01.wav
     9:33.05      101089004    ---   --   -----   gd87-07-08d2t02.wav
    10:46.28      114020300    ---   --   -----   gd87-07-08d2t03.wav
     9:58.73      105658940    ---   --   -----   gd87-07-08d2t04.wav
     8:09.70       86424284    ---   --   -----   gd87-07-08d2t05.wav
     6:18.74       66853292    ---   --   -----   gd87-07-08d3t01.wav
     8:15.17       87358028    ---   --   -----   gd87-07-08d3t02.wav
     6:17.42       66601628    ---   --   -----   gd87-07-08d3t03.wav
     7:16.53       77035100    ---   --   -----   gd87-07-08d3t04.wav
     8:25.31       89154956    ---   --   -----   gd87-07-08d3t05.wav
     6:33.06       69339356    ---   --   -----   gd87-07-08d3t06.wav
   149:50.22     1585888624 B                     (totals for 20 files)
Show Checksums
ffp
gd87-07-08d1t01.flac:f8e96552a00993ed3a3008dde06680e5
gd87-07-08d1t02.flac:a8052abdc0fd6c857805e013ee6e47a9
gd87-07-08d1t03.flac:5d2e7d902a56da57839bdc359ecd4d3d
gd87-07-08d1t04.flac:12c16de8f3f201e05b257b56abc9e5be
gd87-07-08d1t05.flac:0c686ee55244038c5dd576b79a15e61c
gd87-07-08d1t06.flac:ccd4f36abf5652bb64e2b2d25f2f9a51
gd87-07-08d1t07.flac:4038ad3df02a1c108641cff8017a808c
gd87-07-08d1t08.flac:e8647be5e92f068d3a1b33e6ba68d3c4
gd87-07-08d1t09.flac:48df6152d0794bed610081ddf6592120
gd87-07-08d2t01.flac:f8d544651c11eff2d730d8f538899405
gd87-07-08d2t02.flac:7fe84e0f759c13c6cc665bc0926146e7
gd87-07-08d2t03.flac:d83df87ebca95f8569292746910d979f
gd87-07-08d2t04.flac:90e5fc0a3eab53b4c9c4c23aa8eaaf17
gd87-07-08d2t05.flac:f01b516a2c7c7c4e7bc9a7a59c09f4f0
gd87-07-08d3t01.flac:702d3490894b902f8dec7949d632f6ed
gd87-07-08d3t02.flac:f4b3a0bd5ca203d1bfa9081b07633fa1
gd87-07-08d3t03.flac:70d4ec0260bf4fe90fa38f7f83c5d999
gd87-07-08d3t04.flac:e248373526f04bfead38f22519ec09b0
gd87-07-08d3t05.flac:62177f40ecfb01c7ed330d385403e22b
gd87-07-08d3t06.flac:6241e5641af95c2b87651c8479172874
flac-md5
9999fd0326c5eeb3bcd537763e65b908 *gd87-07-08d1t01.flac
fba3013328bd915e280e73b9af35bf3a *gd87-07-08d1t02.flac
604aabf9a17bc39fd346ccc85caa10a8 *gd87-07-08d1t03.flac
4187c0404b76f7f5650f84cee7d42482 *gd87-07-08d1t04.flac
17ccbffe5099acd8139dfe4b14b71834 *gd87-07-08d1t05.flac
4b96ed70eda29ce3d6530148ab68fdf7 *gd87-07-08d1t06.flac
0491bdebf39afc3c5dc579864502ab4f *gd87-07-08d1t07.flac
c88e497491f3db6909284937597e2bee *gd87-07-08d1t08.flac
0ce700f0167446b61b6ac554f94922fd *gd87-07-08d1t09.flac
204024f5ef27aa7d29b624f07c3b1eb8 *gd87-07-08d2t01.flac
002f8d3edffdd1463ce17843d70e836c *gd87-07-08d2t02.flac
d5556b30068fca95c31581c6e9cd578a *gd87-07-08d2t03.flac
6893da65292bcbfce87828f7199df42e *gd87-07-08d2t04.flac
1579499bc46544718c5ab5be8d06860a *gd87-07-08d2t05.flac
e216dae57a23059ab83ff97c51fbf206 *gd87-07-08d3t01.flac
31e8b2a19faa81632073e52de26018c8 *gd87-07-08d3t02.flac
1a1ddd8bec3458fb68305ead30d7d256 *gd87-07-08d3t03.flac
0fc9dd99a0ec03a26edc9a3d57410ae0 *gd87-07-08d3t04.flac
11e0b1b03c5f4ca584a94f09de7a519f *gd87-07-08d3t05.flac
d3630d1a761e976490fbc13e07e4d241 *gd87-07-08d3t06.flac

Comments
Add Comment
Other Sources (comments)
FOB aud.->DAT->WAV->SHN;... (1) AUD (taper's section)>... (1) FOB Schoeps > PCM > DAT @... (0) flac16; Source:... (0) flac16; Recorded by... (0) flac16; Recording:... (0) flac24; Source:... (0) flac16; Set 2... (0)
Date User Comment