Browse Collections Artists Sources   Search Dates

Add Show    List Management    Help


Grateful Dead 03/02/81
Cleveland Music Hall, Cleveland, OH
Comments Add Comment    Source Collectors    Add to Collection    Add to Want List    History
Source # 90165 Other Sources
Entered by Matt Vernon
Checksums ffp , flac-md5
Disc Counts 2 / 2
Media Size
Date Circulated
Date Added
02/23/2008
02/23/2008
Source Summary flac16; Recording Info: (FOB) Nakamichi 700 (With Bass EQ) -> Cassette Master (Sony D5M/Maxell XLIIS/Dolby B) Transfer Info: Cassette Master (Nakamichi DR-1/Dolby B) -> Sound Devices 744T (24bit/96k) -> Samplitude Professional v10.02 -> FLAC/16 All Transfers and Mastering By Charlie Miller 
  Archive
Source Information - Download Text | Download Zip
Grateful Dead - March 2, 1981
Cleveland Music Hall - Cleveland, OH

Recording Info:
(FOB) Nakamichi 700 (With Bass EQ) -> Cassette Master (Sony D5M/Maxell XLIIS/Dolby B)

Transfer Info:
Cassette Master (Nakamichi DR-1/Dolby B) -> Sound Devices 744T (24bit/96k) ->
Samplitude Professional v10.02 -> FLAC/16
(2 Discs Audio / 2 Discs FLAC)

All Transfers and Mastering By Charlie Miller
[email protected]
February 22, 2008

Notes:
-- Thanks to Bob Wagner for lending me his masters

Set 1:
d1t01 - Tuning
d1t02 - Shakedown Street
d1t03 - New Minglewood Blues
d1t04 - Dire Wolf
d1t05 - Cassidy
d1t06 - Althea
d1t07 - El Paso
d1t08 - Jack-A-Roe
d1t09 - Lazy Lightnin' ->
d1t10 - Supplication
d1t11 - Don't Ease Me In ->
d1t12 - The Promised Land

Set 2:
d2t01 - Tuning
d2t02 - Ramble On Rose ->
d2t03 - Playin' In The Band ->
d2t04 - China Doll ->
d2t05 - Playin' Jam ->
d2t06 - Drums ->
d2t07 - Space ->
d2t08 - Playing In The Band ->
d2t09 - The Wheel ->
d2t10 - Around And Around ->
d2t11 - Johnny B. Goode

Encore:
d2t12 - U.S. Blues


SHNTOOL OUTPUT:
    length     expanded size   cdr  WAVE problems filename
     1:36.25       16993244    ---   --   -----   gd81-03-02d1t01.wav
    13:25.56      142133756    ---   --   -----   gd81-03-02d1t02.wav
     9:27.08      100037660    ---   --   -----   gd81-03-02d1t03.wav
     3:33.68       37733180    ---   --   -----   gd81-03-02d1t04.wav
     7:17.57       77220908    ---   --   -----   gd81-03-02d1t05.wav
     8:49.51       93435596    ---   --   -----   gd81-03-02d1t06.wav
     6:17.70       66667484    ---   --   -----   gd81-03-02d1t07.wav
     5:32.04       58574252    ---   --   -----   gd81-03-02d1t08.wav
     3:24.44       36089132    ---   --   -----   gd81-03-02d1t09.wav
     8:42.38       92170220    ---   --   -----   gd81-03-02d1t10.wav
     3:14.18       34263980    ---   --   -----   gd81-03-02d1t11.wav
     4:40.30       49462604    ---   --   -----   gd81-03-02d1t12.wav
     1:09.14       12204572    ---   --   -----   gd81-03-02d2t01.wav
     7:47.72       82548188    ---   --   -----   gd81-03-02d2t02.wav
    12:44.60      134910764    ---   --   -----   gd81-03-02d2t03.wav
     5:29.05       58047404    ---   --   -----   gd81-03-02d2t04.wav
     3:34.65       37902524    ---   --   -----   gd81-03-02d2t05.wav
    12:35.68      133341980    ---   --   -----   gd81-03-02d2t06.wav
     8:21.35       88458764    ---   --   -----   gd81-03-02d2t07.wav
     5:21.62       56770268    ---   --   -----   gd81-03-02d2t08.wav
     7:06.37       75233468    ---   --   -----   gd81-03-02d2t09.wav
     3:57.46       41915036    ---   --   -----   gd81-03-02d2t10.wav
     5:33.13       58771820    ---   --   -----   gd81-03-02d2t11.wav
     5:57.55       63104204    ---   --   -----   gd81-03-02d2t12.wav
   155:42.26     1647991008 B                     (totals for 24 files)
Show Checksums
ffp
gd81-03-02d1t01.flac:0eb9beedc59964dba821d2ff8ac85dd5
gd81-03-02d1t02.flac:a874030a95ae567d0b64d39142772222
gd81-03-02d1t03.flac:c1ab273ee2367ae928ce6b2e3092c43b
gd81-03-02d1t04.flac:e1a2a963039e3c869fd38f66acfec27d
gd81-03-02d1t05.flac:3daaf2541d5e4600fe4b3fd9bfeb0390
gd81-03-02d1t06.flac:1483a3016bada01c8094efbed75d39a9
gd81-03-02d1t07.flac:de2cf9c03fd4ac701a167570ba79b809
gd81-03-02d1t08.flac:2a23789193dc382c9270ea20ea672348
gd81-03-02d1t09.flac:30cc35184c38b43874aa8431aef21251
gd81-03-02d1t10.flac:4ba7f28a49cd9e3b7580fa9cd564805c
gd81-03-02d1t11.flac:733d563f9f0f9b838b2485757f8d8b35
gd81-03-02d1t12.flac:3a671a6f5b1a340a5168d5090e5150a4
gd81-03-02d2t01.flac:5ae762b516228080ba7ad71da632749f
gd81-03-02d2t02.flac:863b3b08aad4a9141b5c0dbd808be593
gd81-03-02d2t03.flac:1d964b650e2fec97fb59e6ba77d1e7ef
gd81-03-02d2t04.flac:0119439226c23d235c7eec8d46124275
gd81-03-02d2t05.flac:0e4dfd00709267dcecf9793c5845b266
gd81-03-02d2t06.flac:b671751e7312e5c10196a4fb6a6a73a5
gd81-03-02d2t07.flac:49a9d3c6761478383152d6bfdd505826
gd81-03-02d2t08.flac:586784289cd81b1e1c20b3af288a44fd
gd81-03-02d2t09.flac:0551d1e12081faa9aa1fd04fb8fa17e4
gd81-03-02d2t10.flac:3c6aa1c5b4a9d2642f9bf2eba3041e00
gd81-03-02d2t11.flac:c3289f17beeeccde5aaaf4ed631f8f98
gd81-03-02d2t12.flac:864efab5dc8652c541a4ada6f143d21e
flac-md5
fd5300c524d4a3c3fbac5d6ebfcc75cc *gd81-03-02d1t01.flac
ea2bb80ebf8efcc87d68a972e9d07a19 *gd81-03-02d1t02.flac
28c89ee6fa2f792ac9fe0ad3ad7fd3ec *gd81-03-02d1t03.flac
a1b95c43889f2dfed5e140d3ce0c8efa *gd81-03-02d1t04.flac
9452f68fc050c0999f7dacc2da24641e *gd81-03-02d1t05.flac
aa4acb728104514cf1e62c30f49e45f6 *gd81-03-02d1t06.flac
7a48e19ba8ca539fd9fe979f5ff75b65 *gd81-03-02d1t07.flac
29d4a5642d343d51880b6358d78b8611 *gd81-03-02d1t08.flac
652c2d4c1d97aae096a279f76b62a571 *gd81-03-02d1t09.flac
805382170660a5cbea078ca6ca7dc3cc *gd81-03-02d1t10.flac
ad8bfbaf99d218a51e27c0ef3c39c4d0 *gd81-03-02d1t11.flac
b68ae76c52ed9b749f26a7eeb78a8bf5 *gd81-03-02d1t12.flac
715af15174b495f0ce93d6c52abf33f8 *gd81-03-02d2t01.flac
4c1712d449dff78b02d8372a34febe9f *gd81-03-02d2t02.flac
59f4be486a4a390fd059b6911d004799 *gd81-03-02d2t03.flac
7ff1dddd3003633a053a412aaeedac8c *gd81-03-02d2t04.flac
cd6468fed3b344060eb71715d89eefb4 *gd81-03-02d2t05.flac
d343c3efe5f2d20a790e05151269cd77 *gd81-03-02d2t06.flac
21c7c7c1b77d41bf2b951b9c67f535ac *gd81-03-02d2t07.flac
60dac15c5b836f288eb200198ed405ea *gd81-03-02d2t08.flac
e039d5f6fc079579db8856d124067f78 *gd81-03-02d2t09.flac
74e6b444ce08caf2e2c5eea6923ba32a *gd81-03-02d2t10.flac
118b76427313569c811f28f5181b7849 *gd81-03-02d2t11.flac
b045b9a97a3a16ef5db2f8ebe91cf34d *gd81-03-02d2t12.flac

Comments
Add Comment
Other Sources (comments)
Recording by Bob Wagner:... (0) flac16; Recording by... (0) flac16; Recording by... (1) flac24; Recording by... (1) flac24/96; Recording... (1) flac16; Recording... (0) flac16; Source Info:... (0) flac24; Source Info:... (0)
Date User Comment