Browse Collections Artists Sources   Search Dates

Add Show    List Management    Help


Gov't Mule 04/19/07
Legends, Boone, NC
Comments Add Comment    Source Collectors    Add to Collection    Add to Want List    History
Source # 90267 Other Sources
Entered by
Checksums flac.ffp
Disc Counts 2 / 2
Media Size
Date Circulated
Date Added
02/06/08
02/27/2008
Source Summary Source: Schoeps CCM4V'S(din)>Lunatec V2>Sound Devices 722 (24/48)
Location: fob/dfc,kfc/zfc/aarp 50' from Stage 7' High
Dsp: Sound Devices 722>Sound Forge 7.0>CD Wave>flac(16) 
Source Information - Download Text | Download Zip
Gov't Mule
Legend's
Boone, North Carolina
4/19/2007

source: Schoeps CCM4V'S(din)>Lunatec V2>Sound Devices 722 (24/48)
location: fob/dfc,kfc/zfc/aarp 50' from Stage 7' High
dsp: Sound Devices 722>Sound Forge 7.0>CD Wave>flac(16)
Recorded By: The Z-Man
Seeded: The Z-Man

Disc I 1st Set

01 Grinnin' In Your Face >
02 Bad Little Doggie >
03 Brand New Angel
04 Mr. High And Mighty
05 Game Face >
06 Mountain Jam >
07 Game Face
08 Don't Step On The Grass, Sam >
09 Mississippi Queen
10 Sco-Mule
11 Banks Of The Deep End
12 Thorazine Shuffle

Disc II 2nd Set

01 Lola Leave Your Light On >
02 Livin' Lovin' Maid
03 Endless Paradise
04 If Loving You Is Wrong, I Don't Want To Be Right
05 Like Flies >
06 Drums
07 When Doves Cry >
08 Beautifully Broken >
09 When Doves Cry >  
10 Beautifully Broken >
11 I'm A Ram >
12 Love Me Do >
13 I'm A Ram >
14 Mule
Encore:
15 Reggae Soulshine


length     expanded size   cdr  WAVE problems filename
     3:03.60       32422364    ---   --   ---xx   Gov't Mule Boone 4-19-2007d01t01.flac
     3:47.50       40160444    ---   --   ---xx   Gov't Mule Boone 4-19-2007d01t02.flac
     6:48.57       72105308    ---   --   ---xx   Gov't Mule Boone 4-19-2007d01t03.flac
     5:24.29       57221852    ---   --   ---xx   Gov't Mule Boone 4-19-2007d01t04.flac
     6:59.55       74041004    ---   --   ---xx   Gov't Mule Boone 4-19-2007d01t05.flac
     6:09.34       65171612    ---   --   ---xx   Gov't Mule Boone 4-19-2007d01t06.flac
     2:13.64       23611772    ---   --   ---xx   Gov't Mule Boone 4-19-2007d01t07.flac
     5:41.25       60211244    ---   --   ---xx   Gov't Mule Boone 4-19-2007d01t08.flac
     3:04.53       32582300    ---   --   ---xx   Gov't Mule Boone 4-19-2007d01t09.flac
    11:00.46      116532236    ---   --   ---xx   Gov't Mule Boone 4-19-2007d01t10.flac
     6:27.17       68306828    ---   --   ---xx   Gov't Mule Boone 4-19-2007d01t11.flac
    12:42.17      134456828    ---   --   ---xx   Gov't Mule Boone 4-19-2007d01t12.flac
     7:15.54       76861052    ---   --   ---xx   Gov't Mule Boone 4-19-2007d02t01.flac
     3:44.52       39635948    ---   --   ---xx   Gov't Mule Boone 4-19-2007d02t02.flac
     9:23.45       99419084    ---   --   ---xx   Gov't Mule Boone 4-19-2007d02t03.flac
     2:42.04       28586252    ---   --   ---xx   Gov't Mule Boone 4-19-2007d02t04.flac
     5:57.00       62974844    ---   --   ---xx   Gov't Mule Boone 4-19-2007d02t05.flac
    10:40.66      113051276    ---   --   ---xx   Gov't Mule Boone 4-19-2007d02t06.flac
     1:36.64       17084972    ---   --   ---xx   Gov't Mule Boone 4-19-2007d02t07.flac
     4:07.38       43660220    ---   --   ---xx   Gov't Mule Boone 4-19-2007d02t08.flac
     1:17.39       13674572    ---   --   ---xx   Gov't Mule Boone 4-19-2007d02t09.flac
     2:38.61       28014716    ---   --   ---xx   Gov't Mule Boone 4-19-2007d02t10.flac
     7:30.52       79502348    ---   --   ---xx   Gov't Mule Boone 4-19-2007d02t11.flac
     1:37.25       17169644    ---   --   ---xx   Gov't Mule Boone 4-19-2007d02t12.flac
     2:04.06       21887756    ---   --   ---xx   Gov't Mule Boone 4-19-2007d02t13.flac
     9:21.14       98993372    ---   --   ---xx   Gov't Mule Boone 4-19-2007d02t14.flac
     9:52.13      104459420    ---   --   ---xx   Gov't Mule Boone 4-19-2007d02t15.flac
   153:13.65     1621799268 B                     (totals for 27 files, 0.5388 overall compression ratio)


Show Checksums
flac.ffp
Gov't Mule Boone 4-19-2007d01t01.flac:3563d068f73685551ee0c39392e933f9
Gov't Mule Boone 4-19-2007d01t02.flac:24a8c09a052d1425f022f78d7056583b
Gov't Mule Boone 4-19-2007d01t03.flac:4761546a9f08d6d95ad35288ed375d1c
Gov't Mule Boone 4-19-2007d01t04.flac:55d18c35bd7543bb9260954d1347cb83
Gov't Mule Boone 4-19-2007d01t05.flac:5ac9fb8f355acc115283c5f75f18efed
Gov't Mule Boone 4-19-2007d01t06.flac:2fdf04d5806ee2347313da50c39c603d
Gov't Mule Boone 4-19-2007d01t07.flac:4d3d8a480adfc3a3fda62d2f49b162c2
Gov't Mule Boone 4-19-2007d01t08.flac:fac40f06a999aa1bfd9593c9b1767810
Gov't Mule Boone 4-19-2007d01t09.flac:e00b20f96ceb2de13a2b46a607e0f1fe
Gov't Mule Boone 4-19-2007d01t10.flac:1a0652c07982f65ba220cdd44388ec2e
Gov't Mule Boone 4-19-2007d01t11.flac:4e7682bdc01265e43a9d16ff14801ab0
Gov't Mule Boone 4-19-2007d01t12.flac:c22a9cd974107b7de0c6576db4f8880a
Gov't Mule Boone 4-19-2007d02t01.flac:73c5d402d95593f85a83ad3ea667654c
Gov't Mule Boone 4-19-2007d02t02.flac:fb4349149d17006af2ed5592f5785374
Gov't Mule Boone 4-19-2007d02t03.flac:07d031793de093e60dbb17deb662284f
Gov't Mule Boone 4-19-2007d02t04.flac:08b195d8e8f729e40aba70aeb749185d
Gov't Mule Boone 4-19-2007d02t05.flac:5f24f713862ef30544ccc9078aa950b3
Gov't Mule Boone 4-19-2007d02t06.flac:e966f5b3ed74dc81c0b264427913fcb7
Gov't Mule Boone 4-19-2007d02t07.flac:ee095fdf367c2e45fe34c746fb61091e
Gov't Mule Boone 4-19-2007d02t08.flac:d966f38d710f09371813c6944395351c
Gov't Mule Boone 4-19-2007d02t09.flac:afe0c563b4f227b9e30dfcf2f482d7d7
Gov't Mule Boone 4-19-2007d02t10.flac:af0b2ecb3fdc504c049b22a276883945
Gov't Mule Boone 4-19-2007d02t11.flac:7340a7edd4943b73668af0f223f92cda
Gov't Mule Boone 4-19-2007d02t12.flac:54e5129e959d62893354c8644ca61def
Gov't Mule Boone 4-19-2007d02t13.flac:b30c356a108d1afe2bf5e3cfc0dd2def
Gov't Mule Boone 4-19-2007d02t14.flac:ca1ebfd120e639f9c06ee7844596372a
Gov't Mule Boone 4-19-2007d02t15.flac:d7ae15196c489699b0f2f222515b4203

Comments
Add Comment
Other Sources (comments)
Source: Schoeps... (0)
Date User Comment