Browse Collections Artists Sources   Search Dates

Add Show    List Management    Help


Grateful Dead 03/02/81
Cleveland Music Hall, Cleveland, OH
Comments Add Comment    Source Collectors    Add to Collection    Add to Want List    History
Source # 90450 Other Sources
Entered by Matt Vernon
Checksums ffp , flac-md5
Disc Counts 5 / 0
Media Size
Date Circulated
Date Added
02/29/2008
02/29/2008
Source Summary flac24/96; Recording Info: (FOB) Nakamichi 700 (With Bass EQ) -> Cassette Master (Sony D5M/Maxell XLIIS/Dolby B) Transfer Info: Cassette Master (Nakamichi DR-1/Dolby B) -> Sound Devices 744T (24bit/96k) -> Samplitude Professional v10.02 -> FLAC/24 All Transfers and Mastering By Charlie Miller 
  Archive
Source Information - Download Text | Download Zip
Grateful Dead - March 2, 1981
Cleveland Music Hall - Cleveland, OH
**THIS IS A 24-BIT SOURCE**

Recording Info:
(FOB) Nakamichi 700 (With Bass EQ) -> Cassette Master (Sony D5M/Maxell XLIIS/Dolby B)

Transfer Info:
Cassette Master (Nakamichi DR-1/Dolby B) -> Sound Devices 744T (24bit/96k) ->
Samplitude Professional v10.02 -> FLAC/24
(2 Discs Audio / 1 DVD FLAC)

All Transfers and Mastering By Charlie Miller
[email protected]
February 22, 2008

Notes:
-- Thanks to Bob Wagner for lending me his masters
-- This is a 24-bit source...a 16-bit source also circulates

Set 1:
d1t01 - Tuning
d1t02 - Shakedown Street
d1t03 - New Minglewood Blues
d1t04 - Dire Wolf
d1t05 - Cassidy
d1t06 - Althea
d1t07 - El Paso
d1t08 - Jack-A-Roe
d1t09 - Lazy Lightnin' ->
d1t10 - Supplication
d1t11 - Don't Ease Me In ->
d1t12 - The Promised Land

Set 2:
d2t01 - Tuning
d2t02 - Ramble On Rose ->
d2t03 - Playin' In The Band ->
d2t04 - China Doll ->
d2t05 - Playin' Jam ->
d2t06 - Drums ->
d2t07 - Space ->
d2t08 - Playing In The Band ->
d2t09 - The Wheel ->
d2t10 - Around And Around ->
d2t11 - Johnny B. Goode

Encore:
d2t12 - U.S. Blues


SHNTOOL OUTPUT:
    length     expanded size   cdr  WAVE problems filename
     1:36.347      55495724    cxx   --   -----   gd81-03-02d1t01.wav
    13:25.747     464110124    cxx   --   -----   gd81-03-02d1t02.wav
     9:27.107     326653484    cxx   --   -----   gd81-03-02d1t03.wav
     3:33.907     123210284    cxx   --   -----   gd81-03-02d1t04.wav
     7:17.760     252149804    cxx   --   -----   gd81-03-02d1t05.wav
     8:49.680     305095724    cxx   --   -----   gd81-03-02d1t06.wav
     6:17.933     217689644    cxx   --   -----   gd81-03-02d1t07.wav
     5:32.053     191262764    cxx   --   -----   gd81-03-02d1t08.wav
     3:24.587     117841964    cxx   --   -----   gd81-03-02d1t09.wav
     8:42.507     300963884    cxx   --   -----   gd81-03-02d1t10.wav
     3:14.240     111882284    cxx   --   -----   gd81-03-02d1t11.wav
     4:40.390     161504930    cxx   --   -----   gd81-03-02d1t12.wav
     1:09.187      39851564    cxx   --   -----   gd81-03-02d2t01.wav
     7:47.960     269545004    cxx   --   -----   gd81-03-02d2t02.wav
    12:44.800     440524844    cxx   --   -----   gd81-03-02d2t03.wav
     5:29.067     189542444    cxx   --   -----   gd81-03-02d2t04.wav
     3:34.867     123763244    cxx   --   -----   gd81-03-02d2t05.wav
    12:35.907     435402284    cxx   --   -----   gd81-03-02d2t06.wav
     8:21.467     288844844    cxx   --   -----   gd81-03-02d2t07.wav
     5:21.827     185372204    cxx   --   -----   gd81-03-02d2t08.wav
     7:06.493     245660204    cxx   --   -----   gd81-03-02d2t09.wav
     3:57.613     136865324    cxx   --   -----   gd81-03-02d2t10.wav
     5:33.173     191907884    cxx   --   -----   gd81-03-02d2t11.wav
     5:57.727     206050970    cxx   --   -----   gd81-03-02d2t12.wav
   155:42.344    5381191428 B                     (totals for 24 files)
Show Checksums
ffp
gd81-03-02d1t01.flac:46a5753a3bc5e1272c00f8aa38f9d72d
gd81-03-02d1t02.flac:02cd0bee91881a3276eb0934bc20ef80
gd81-03-02d1t03.flac:724dc81942062f1dce692dc0e7877493
gd81-03-02d1t04.flac:e6ebb82ab88aa6370ef1586b81e537a5
gd81-03-02d1t05.flac:03a01c5be52072b3545cf1dab1b48ac1
gd81-03-02d1t06.flac:b9db1b1b8470cdd9494031f1659d2565
gd81-03-02d1t07.flac:ef9132d73bf3fed15898c9e9204e5aaa
gd81-03-02d1t08.flac:c46038074dfe3e5828c4e8da96b5e184
gd81-03-02d1t09.flac:daaf3b3ece05e69bbd8ac905eebcc782
gd81-03-02d1t10.flac:287841ea11c8d8439c4239ed76dc1cbc
gd81-03-02d1t11.flac:ad2b927f4d6d932a3befa37861935f0a
gd81-03-02d1t12.flac:473e0d94fe83b94d4fcb4d4f38466a43
gd81-03-02d2t01.flac:4bfc6630ad2aca4a1291c253446d324f
gd81-03-02d2t02.flac:ad5c897f0dc76c9d82839c3d7bbc97d6
gd81-03-02d2t03.flac:73f9cb0225f9be44aa3eeda24e549bb1
gd81-03-02d2t04.flac:9c29f42a7bce41ee159f52599657b9be
gd81-03-02d2t05.flac:89e7525096363bdbbf9254e93a8df382
gd81-03-02d2t06.flac:42beed53bbffc45a8be8b2314b196976
gd81-03-02d2t07.flac:f8a97664cce7d02442603ccc69071be3
gd81-03-02d2t08.flac:a8a5aac83734e353c934c919870ab72d
gd81-03-02d2t09.flac:090903561192c6cc7634f0c770dffd1a
gd81-03-02d2t10.flac:1af0d6e67a242b0b746a75cbe17fcaf9
gd81-03-02d2t11.flac:99c719620348634b3aa6d43b01f5c355
gd81-03-02d2t12.flac:47f37522d9683ab301607132a5fb5c8e
flac-md5
203e65d5f4eec9f4538f4e58d0559431 *gd81-03-02d1t01.flac
cb533d5206e5226a75e5821cf4ece4a5 *gd81-03-02d1t02.flac
9daefa1cbcd17592b73549dceaf6150e *gd81-03-02d1t03.flac
478074336b681830379dd169f34e81e1 *gd81-03-02d1t04.flac
d189c44f3d9a2cb5e9f0e33c6bbb1434 *gd81-03-02d1t05.flac
f38ef01d53a8360b923ee8de58ba8fe7 *gd81-03-02d1t06.flac
ec256bb8bd02aa6b2aec9aafed318e1d *gd81-03-02d1t07.flac
99e71faca27432b52127d8ad1366669a *gd81-03-02d1t08.flac
d275542bb823821d6a6f820f7a3da51c *gd81-03-02d1t09.flac
54f815af982e6c9ffee8d9075abf8fd0 *gd81-03-02d1t10.flac
50602db30c3eaa3a2f340f61a6a12502 *gd81-03-02d1t11.flac
b3080fa932e80186d883c58078d26ffb *gd81-03-02d1t12.flac
87bb832097b33ee16a7567dc721599ae *gd81-03-02d2t01.flac
ab6de7698ff2439b4631fe80c3d351df *gd81-03-02d2t02.flac
566bddc0d441f07a030dc295fdb52aa4 *gd81-03-02d2t03.flac
32955889fd01c64b8d5b93f0823a513c *gd81-03-02d2t04.flac
a0ea8a1deb52a04548ca3bd7792a32d9 *gd81-03-02d2t05.flac
52c66bcc3f61d36c71a8de0c89e2dd1e *gd81-03-02d2t06.flac
e9cc76a89e99ec2e136722a7d27ed3d8 *gd81-03-02d2t07.flac
6823cce6d3c1cb8549636979c7505ac6 *gd81-03-02d2t08.flac
1b672e226795d74a8a0e84d9a5cff68d *gd81-03-02d2t09.flac
ea96b21ae61f91f2ff718ba712157864 *gd81-03-02d2t10.flac
cca67e34748f0f9576b894daef3ce64f *gd81-03-02d2t11.flac
b74f923be5a0f20c8ab22462d9fc9f55 *gd81-03-02d2t12.flac

Comments
Add Comment
Other Sources (comments)
Recording by Bob Wagner:... (0) flac16; Recording by... (0) flac16; Recording by... (1) flac24; Recording by... (1) flac16; Recording... (0) flac16; Recording... (0) flac16; Source Info:... (0) flac24; Source Info:... (0)
Date User Comment
02/29/2008 charlie miller (2 Discs Audio / 2 Discs FLAC) should actually read (1 DVD FLAC)