Browse Collections Artists Sources   Search Dates

Add Show    List Management    Help


Ween 01/24/08
Toad's Place, Richmond, VA
Comments Add Comment    Source Collectors    Add to Collection    Add to Want List    History
Source # 90451 Other Sources
Entered by Greg Yurkovic
Checksums ffp
Disc Counts 2 / 2
Media Size
Date Circulated
Date Added
01/31/2008
02/29/2008
Source Summary flac16: mk41 > kc5 > cmc6 > m248 > mini-me > hd-p2 (24/96) ; CF > Wavelab (edits/fades/tracking/resample/dither-uv22hr-) > FLAC (lvl 6) 
Source Information - Download Text | Download Zip
Ween
January 24th, 2008
Toad's Place
Richmond, VA

**16bit**

Source: mk41 > kc5 > cmc6 > m248 > mini-me > hd-p2 (24/96)
Location: 2nd Floor Balc, DFC, Pointed @ Stacks, 7' clamp
Transfer: CF > Wavelab (edits/fades/tracking/resample/dither-uv22hr-) > FLAC (lvl 6)
Taped and transferred by Todd (titotito at gmail)

Set 1/Disc 1:
01. The HIV Song
02. Golden Eel
03. Stallion 3
04. Piss up a Rope
05. Bananas and Blow
06. Learning love
07. Voodoo lady
08. Your Party
09. Take me away
10. Gabrielle
11. Even if You Dont
12. Pandy
13. Buckingham Green
14. Spinal Meningitis
15. Bare Hands
16. Baby Bitch

Set 1/Disc 2:
01. Final Alarm
02. Object
03. Touch My Tooter
04. Don't Get to Close
05. Woman and Man
06. The Mollusk
07. Ocean Man
08. Fat Lenny
09. Dr. Rock
Encore:
10. Fiesta
11. Big Jilm
12. Sorry Charlie
13. Booze Me Up
14. Fluffy

FLAC Fingerprint:

ween2008-01-24d1t01_The_HIV_Song.flac:d55423c867d5d2f7cc8b9d7f3f92261d
ween2008-01-24d1t02_Golden_Eel.flac:ad978bd7eefe4ef3c1e6e7e781224350
ween2008-01-24d1t03_Stallion_3.flac:9d8832b897d36aa3a1cdeccd01cea5be
ween2008-01-24d1t04_Piss_up_a_Rope.flac:63e79aebe355dc83288b4e0c2dd1fcef
ween2008-01-24d1t05_Bananas_and_Blow.flac:1afca692e26108d0e0a386524466cce4
ween2008-01-24d1t06_Learning_love.flac:d605fdbe7a74fb07e3f75da0e5c5e841
ween2008-01-24d1t07_Voodoo_lady.flac:55c3d2facca94798992cc995fcb2e8c1
ween2008-01-24d1t08_Your_Party.flac:36d9dfa5356fd69732c6bd909ef4d125
ween2008-01-24d1t09_Take_me_away.flac:66d10e3811fc106b74ca4370002862ba
ween2008-01-24d1t10_Gabrielle.flac:e5f3a97ef4a0b46db6f8fdf30d5b60cf
ween2008-01-24d1t11_Even_if_You_Dont.flac:9a69affd371d49bb533d972ba15eb48b
ween2008-01-24d1t12_Pandy.flac:d1378140fc4c5ff6806e310bdb82bb24
ween2008-01-24d1t13_Buckingham_Green.flac:7f80ee6d8060f3ffa6597017892cfa67
ween2008-01-24d1t14_Spinal_Meningitis.flac:01f127d2047c9d4b59682047b83a694a
ween2008-01-24d1t15_Bare_Hands.flac:2733e456bd2b42d24181eaba5e42068e
ween2008-01-24d1t16_Baby_Bitch.flac:c18f955bc4e1e2113f031d5cf527674d
ween2008-01-24d2t01_Final_Alarm.flac:ade14d9e6a0a1a2fc4e9bb0fb3a3f89d
ween2008-01-24d2t02_Object.flac:bac1745a00f51b6f6fcd26b9c8bdcc94
ween2008-01-24d2t03_Touch_My_Tooter.flac:e2827319d473343f8960218dc75db2ca
ween2008-01-24d2t04_Don't_Get_to_Close.flac:dbe4aa1c9d9cd20f8e6ae06bc540d121
ween2008-01-24d2t05_Woman_and_Man.flac:06fa80be41cb2adaa106964226621f4e
ween2008-01-24d2t06_The_Mollusk.flac:3af0ad72ada2241fae8d6e8085728388
ween2008-01-24d2t07_Ocean_Man.flac:3fb8476a9aec02589289ec025d32c760
ween2008-01-24d2t08_Fat_Lenny.flac:60cb97a2f926d647dedc5b8ba1f8851b
ween2008-01-24d2t09_Dr._Rock.flac:ddd55cc998129ddbd58fd2f9ab7887db
ween2008-01-24d2t10_Fiesta.flac:001b2470928d3ef063d7c2613b307c74
ween2008-01-24d2t11_Big_Jilm.flac:bb66d36442da9a547c11d3aa1562d839
ween2008-01-24d2t12_Sorry_Charlie.flac:1464f88621b5f172e8c6e52940d87291
ween2008-01-24d2t13_Booze_Me_Up.flac:684037379beebd6408e23d050789714e
ween2008-01-24d2t14_Fluffy.flac:e39e5f02fe4fa4710618428452715d85

SHNtool Output:

    length     expanded size   cdr  WAVE problems filename
     2:56.48       31159340    ---   --   ---xx   ween2008-01-24d1t01_The_HIV_Song.flac
     5:19.23       56325740    ---   --   ---xx   ween2008-01-24d1t02_Golden_Eel.flac
     3:33.67       37730828    ---   --   ---xx   ween2008-01-24d1t03_Stallion_3.flac
     4:02.74       42862892    ---   --   ---xx   ween2008-01-24d1t04_Piss_up_a_Rope.flac
     4:15.17       45022028    ---   --   ---xx   ween2008-01-24d1t05_Bananas_and_Blow.flac
     3:17.22       34802588    ---   --   ---xx   ween2008-01-24d1t06_Learning_love.flac
     9:08.14       96700172    ---   --   ---xx   ween2008-01-24d1t07_Voodoo_lady.flac
     5:06.55       54107804    ---   --   ---xx   ween2008-01-24d1t08_Your_Party.flac
     3:33.32       37648508    ---   --   ---xx   ween2008-01-24d1t09_Take_me_away.flac
     2:57.58       31359260    ---   --   ---xx   ween2008-01-24d1t10_Gabrielle.flac
     4:42.27       49808348    ---   --   ---xx   ween2008-01-24d1t11_Even_if_You_Dont.flac
    10:27.53      110727500    ---   --   ---xx   ween2008-01-24d1t12_Pandy.flac
     4:55.19       52082732    ---   --   ---xx   ween2008-01-24d1t13_Buckingham_Green.flac
     4:26.62       47068268    ---   --   ---xx   ween2008-01-24d1t14_Spinal_Meningitis.flac
     3:13.04       34054652    ---   --   ---xx   ween2008-01-24d1t15_Bare_Hands.flac
     4:17.40       45428924    ---   --   ---xx   ween2008-01-24d1t16_Baby_Bitch.flac
     4:27.71       47265836    ---   --   ---xx   ween2008-01-24d2t01_Final_Alarm.flac
     5:17.27       55982348    ---   --   ---xx   ween2008-01-24d2t02_Object.flac
     2:55.23       30924140    ---   --   ---xx   ween2008-01-24d2t03_Touch_My_Tooter.flac
     3:50.15       40607324    ---   --   ---xx   ween2008-01-24d2t04_Don't_Get_to_Close.flac
     8:28.55       89740604    ---   --   ---xx   ween2008-01-24d2t05_Woman_and_Man.flac
     4:31.46       47912636    ---   --   ---xx   ween2008-01-24d2t06_The_Mollusk.flac
     3:25.43       36263180    ---   --   ---xx   ween2008-01-24d2t07_Ocean_Man.flac
     6:55.43       73307180    ---   --   ---xx   ween2008-01-24d2t08_Fat_Lenny.flac
     8:07.09       85928012    ---   --   ---xx   ween2008-01-24d2t09_Dr._Rock.flac
     2:27.44       26034332    ---   --   ---xx   ween2008-01-24d2t10_Fiesta.flac
     4:21.12       46068668    ---   --   ---xx   ween2008-01-24d2t11_Big_Jilm.flac
     4:02.55       42818204    ---   --   ---xx   ween2008-01-24d2t12_Sorry_Charlie.flac
     4:52.46       51617036    ---   --   ---xx   ween2008-01-24d2t13_Booze_Me_Up.flac
     9:18.57       98565308    ---   --   ---xx   ween2008-01-24d2t14_Fluffy.flac
   149:16.36     1579924392 B                     (totals for 30 files, 0.5688 overall compression ratio)
Show Checksums
ffp
ween2008-01-24d1t01_The_HIV_Song.flac:d55423c867d5d2f7cc8b9d7f3f92261d
ween2008-01-24d1t02_Golden_Eel.flac:ad978bd7eefe4ef3c1e6e7e781224350
ween2008-01-24d1t03_Stallion_3.flac:9d8832b897d36aa3a1cdeccd01cea5be
ween2008-01-24d1t04_Piss_up_a_Rope.flac:63e79aebe355dc83288b4e0c2dd1fcef
ween2008-01-24d1t05_Bananas_and_Blow.flac:1afca692e26108d0e0a386524466cce4
ween2008-01-24d1t06_Learning_love.flac:d605fdbe7a74fb07e3f75da0e5c5e841
ween2008-01-24d1t07_Voodoo_lady.flac:55c3d2facca94798992cc995fcb2e8c1
ween2008-01-24d1t08_Your_Party.flac:36d9dfa5356fd69732c6bd909ef4d125
ween2008-01-24d1t09_Take_me_away.flac:66d10e3811fc106b74ca4370002862ba
ween2008-01-24d1t10_Gabrielle.flac:e5f3a97ef4a0b46db6f8fdf30d5b60cf
ween2008-01-24d1t11_Even_if_You_Dont.flac:9a69affd371d49bb533d972ba15eb48b
ween2008-01-24d1t12_Pandy.flac:d1378140fc4c5ff6806e310bdb82bb24
ween2008-01-24d1t13_Buckingham_Green.flac:7f80ee6d8060f3ffa6597017892cfa67
ween2008-01-24d1t14_Spinal_Meningitis.flac:01f127d2047c9d4b59682047b83a694a
ween2008-01-24d1t15_Bare_Hands.flac:2733e456bd2b42d24181eaba5e42068e
ween2008-01-24d1t16_Baby_Bitch.flac:c18f955bc4e1e2113f031d5cf527674d
ween2008-01-24d2t01_Final_Alarm.flac:ade14d9e6a0a1a2fc4e9bb0fb3a3f89d
ween2008-01-24d2t02_Object.flac:bac1745a00f51b6f6fcd26b9c8bdcc94
ween2008-01-24d2t03_Touch_My_Tooter.flac:e2827319d473343f8960218dc75db2ca
ween2008-01-24d2t04_Don't_Get_to_Close.flac:dbe4aa1c9d9cd20f8e6ae06bc540d121
ween2008-01-24d2t05_Woman_and_Man.flac:06fa80be41cb2adaa106964226621f4e
ween2008-01-24d2t06_The_Mollusk.flac:3af0ad72ada2241fae8d6e8085728388
ween2008-01-24d2t07_Ocean_Man.flac:3fb8476a9aec02589289ec025d32c760
ween2008-01-24d2t08_Fat_Lenny.flac:60cb97a2f926d647dedc5b8ba1f8851b
ween2008-01-24d2t09_Dr._Rock.flac:ddd55cc998129ddbd58fd2f9ab7887db
ween2008-01-24d2t10_Fiesta.flac:001b2470928d3ef063d7c2613b307c74
ween2008-01-24d2t11_Big_Jilm.flac:bb66d36442da9a547c11d3aa1562d839
ween2008-01-24d2t12_Sorry_Charlie.flac:1464f88621b5f172e8c6e52940d87291
ween2008-01-24d2t13_Booze_Me_Up.flac:684037379beebd6408e23d050789714e
ween2008-01-24d2t14_Fluffy.flac:e39e5f02fe4fa4710618428452715d85

Comments
Add Comment
Other Sources (comments)
flac16: B&K4022... (0)
Date User Comment