Browse Collections Artists Sources   Search Dates

Add Show    List Management    Help


Grateful Dead 03/13/81
Utica Memorial Auditorium, Utica, NY
Comments Add Comment    Source Collectors    Add to Collection    Add to Want List    History
Source # 90455 Other Sources
Entered by Matt Vernon
Checksums ffp , flac-md5
Disc Counts 2 / 3
Media Size
Date Circulated
Date Added
03/01/2008
03/01/2008
Source Summary flac16; Recording Info: (FOB) Nakamichi 700 (With Bass EQ) -> Cassette Master (Sony D5M/Maxell XLIIS/Dolby B) Transfer Info: Cassette Master (Nakamichi DR-1/Dolby B) -> Sound Devices 744T (24bit/96k) -> Samplitude Professional v10.02 -> FLAC/16 All Transfers and Mastering By Charlie Miller 
  Archive
Source Information - Download Text | Download Zip
Grateful Dead - March 13, 1981
Memorial Auditorium - Utica, NY

Recording Info:
(FOB) Nakamichi 700 (With Bass EQ) -> Cassette Master (Sony D5M/Maxell XLIIS/Dolby B)

Transfer Info:
Cassette Master (Nakamichi DR-1/Dolby B) -> Sound Devices 744T (24bit/96k) ->
Samplitude Professional v10.02 -> FLAC/16
(3 Discs Audio / 2 Discs FLAC)

All Transfers and Mastering By Charlie Miller
[email protected]
February 27, 2008

Patch Info:
Sennheiser 421 -> Cassette Master -> Sound Forge -> CD (shnid=4167) supplies:
The Music Never Stopped (6:55 - 7:15)
Don't Ease Me In (complete track)

Notes:
-- All disc changes are seamless
-- Thanks to Bob Wagner for lending me his masters

Set 1:
d1t01 - Tuning
d1t02 - Shakedown Street
d1t03 - New Minglewood Blues
d1t04 - They Love Each Other
d1t05 - El Paso
d1t06 - Jack-A-Roe
d1t07 - Little Red Rooster
d1t08 - High Time
d1t09 - Cassidy ->
d1t10 - Althea
d2t01 - The Music Never Stopped

Set 2:
d2t02 - Tuning
d2t03 - Cold Rain And Snow
d2t04 - Samson And Delilah
d2t05 - It Must Have Been The Roses
d3t01 - Estimated Prophet ->
d3t02 - Eyes Of The World ->
d3t03 - Drums ->
d3t04 - Space ->
d3t05 - Lost Sailor ->
d3t06 - Saint Of Circumstance ->
d3t07 - Wharf Rat ->
d3t08 - Sugar Magnolia

Encore:
d3t09 - Don't Ease Me In


SHNTOOL OUTPUT:
    length     expanded size   cdr  WAVE problems filename
     1:53.57       20067308    ---   --   -----   gd81-03-13d1t01.wav
    13:15.32      140313308    ---   --   -----   gd81-03-13d1t02.wav
     8:16.19       87539132    ---   --   -----   gd81-03-13d1t03.wav
     7:20.51       77735996    ---   --   -----   gd81-03-13d1t04.wav
     4:51.28       51398300    ---   --   -----   gd81-03-13d1t05.wav
     5:20.04       56457452    ---   --   -----   gd81-03-13d1t06.wav
     9:46.33      103448060    ---   --   -----   gd81-03-13d1t07.wav
    10:00.45      105945884    ---   --   -----   gd81-03-13d1t08.wav
     5:56.24       62854892    ---   --   -----   gd81-03-13d1t09.wav
     8:54.21       94247036    ---   --   -----   gd81-03-13d1t10.wav
     9:20.73       98955740    ---   --   -----   gd81-03-13d2t01.wav
     0:22.71        4047836    ---   --   -----   gd81-03-13d2t02.wav
     6:06.12       64590668    ---   --   -----   gd81-03-13d2t03.wav
     8:40.06       91742156    ---   --   -----   gd81-03-13d2t04.wav
     9:31.43      100825580    ---   --   -----   gd81-03-13d2t05.wav
    13:54.50      147235244    ---   --   -----   gd81-03-13d3t01.wav
    12:18.62      130329068    ---   --   -----   gd81-03-13d3t02.wav
     7:27.60       78991964    ---   --   -----   gd81-03-13d3t03.wav
     2:47.25       29517644    ---   --   -----   gd81-03-13d3t04.wav
     6:34.08       69520460    ---   --   -----   gd81-03-13d3t05.wav
     6:49.46       72255836    ---   --   -----   gd81-03-13d3t06.wav
    10:22.45      109826684    ---   --   -----   gd81-03-13d3t07.wav
     9:23.30       99383804    ---   --   -----   gd81-03-13d3t08.wav
     3:21.17       35496428    ---   --   -----   gd81-03-13d3t09.wav
   182:36.37     1932726480 B                     (totals for 24 files)
Show Checksums
ffp
gd81-03-13d1t01.flac:fdfc3fbdba8484e7d9b97005327c04da
gd81-03-13d1t02.flac:432f15859c8cc930f1543ec007e967bf
gd81-03-13d1t03.flac:88b21203d7382492a1dfa5505f796e39
gd81-03-13d1t04.flac:b98f3c234e3fc308c87f041476477eef
gd81-03-13d1t05.flac:6b567b1791d4c2ec8a97c86833aa3773
gd81-03-13d1t06.flac:6ca867c170d5f390cdf309bbd2782757
gd81-03-13d1t07.flac:0e3b5f30da5c1ae9ef4e119c07f0c222
gd81-03-13d1t08.flac:b146b92c9b3b5107947f2ca49ad32f71
gd81-03-13d1t09.flac:af2b01c8dfdc4c5c35a1c1da540d2ad9
gd81-03-13d1t10.flac:a364f2bafddc210c2a96f742eb5fde35
gd81-03-13d2t01.flac:3dc5ed7966900f18ea9d0ad4fb31fd9d
gd81-03-13d2t02.flac:9640af28b7ab17da079738e3d4c75c17
gd81-03-13d2t03.flac:30243d774ab505fd34c0f38fb48421d4
gd81-03-13d2t04.flac:1d182dbac2418cd50545d409d6f33507
gd81-03-13d2t05.flac:7f6688f7dda1cc8dec4780390f1ccb7d
gd81-03-13d3t01.flac:ea93734da789d325e86e853275d355eb
gd81-03-13d3t02.flac:7d8b824ef5d1b2ebd0868c4374354776
gd81-03-13d3t03.flac:4d7bf9bf3359a348e3d873e8946fc142
gd81-03-13d3t04.flac:597da940f0fd85ace67de3eb2c17cc03
gd81-03-13d3t05.flac:135c6373fb591310d75e801cd191d4f4
gd81-03-13d3t06.flac:6d453172f791602411ac32a53895d353
gd81-03-13d3t07.flac:817f0660243f3201d4214c4f13142ad8
gd81-03-13d3t08.flac:e242b3e4a12f64545b9e28bdd4721455
gd81-03-13d3t09.flac:6dc571b6071e5ecc0996084310266efc
flac-md5
7e3fe7538214930e43f752158e1cde3e *gd81-03-13d1t01.flac
9d4a25aca84df08e64cc4c7df87f614a *gd81-03-13d1t02.flac
eb30821f4734cc752b7c1603100c7ebe *gd81-03-13d1t03.flac
66ac600436ef4d04f0bb13b43c8f15bb *gd81-03-13d1t04.flac
07c6f5aa1ce58c9222a6eb4ee92d539b *gd81-03-13d1t05.flac
399fb117004e8310db9661db5ba98e9e *gd81-03-13d1t06.flac
dd571efe7ca760773bb0ed75e16a9add *gd81-03-13d1t07.flac
76c98deab427996a3570ac879b2e57c5 *gd81-03-13d1t08.flac
91910191a6f90283b25a5391aaba8908 *gd81-03-13d1t09.flac
dc81547a23ccd1fe44ae9c9e58cc7522 *gd81-03-13d1t10.flac
5c430e443d437fcae54a23d85f1261d9 *gd81-03-13d2t01.flac
79df56fbe1323b085f7bbd3ae59809dc *gd81-03-13d2t02.flac
aa1d224cb78be2f43f3b5102b810c7f9 *gd81-03-13d2t03.flac
f495f34a204eebf7a6fe7acc8b6599d6 *gd81-03-13d2t04.flac
8aba3fe65fd67d7e900d3262018d2782 *gd81-03-13d2t05.flac
e5ef9dbf9d98a6fdf8aad8c5e3bafb20 *gd81-03-13d3t01.flac
da68a55028cec3826e7df445251861b0 *gd81-03-13d3t02.flac
c501d9f22abf789de63ca51ae459fb8a *gd81-03-13d3t03.flac
2cd939e76a9453b78d826df95895b607 *gd81-03-13d3t04.flac
ee69f6ad38dbd9f79ef31ba44aab0903 *gd81-03-13d3t05.flac
6bff84e78a7f697ccbe2cc7f4174f943 *gd81-03-13d3t06.flac
bd3fce9a48a2fb2aeb6c71b1f7a135f0 *gd81-03-13d3t07.flac
9f37cea2201128ed4665c18bfc4dd503 *gd81-03-13d3t08.flac
20a4af1accd5fc2c6fa045eafc809880 *gd81-03-13d3t09.flac

Comments
Add Comment
Other Sources (comments)
Recording by Jim Wise:... (0) flac16; Second Set... (0) flac16; Recorded by... (0) flac16; Recorded by... (0) flac16; Partial Set... (1) flac16; Partial Set... (0) flac16/48kHz;... (0) flac24; Cassette... (0) flac24; Source: AKG... (0)
Date User Comment