Browse Collections Artists Sources   Search Dates

Add Show    List Management    Help


Grateful Dead 12/30/80
Oakland Auditorium Arena, Oakland, CA
Comments Add Comment    Source Collectors    Add to Collection    Add to Want List    History
Source # 90468 Other Sources
Entered by Matt Vernon
Checksums ffp , flac-md5
Disc Counts 1 / 1
Media Size
Date Circulated
Date Added
03/01/2008
03/01/2008
Source Summary flac16; Soundcheck Recording Info: Sennheiser 421 -> Cassette Master -> Cassette Transfer Info: Cassette (Nakamichi DR-1) -> Sound Devices 744T (24bit/48k) -> Samplitude Professional v10.02 -> Cool Edit Pro v2.0 -> FLAC/16 All Transfers and Mastering By Charlie Miller 
  Archive
Source Information - Download Text | Download Zip
Grateful Dead - December 30, 1980
Oakland Auditorium - Oakland, CA
**ACOUSTIC SOUNDCHECK**

Recording Info:
Sennheiser 421 -> Cassette Master -> Cassette

Transfer Info:
Cassette (Nakamichi DR-1) -> Sound Devices 744T (24bit/48k) ->
Samplitude Professional v10.02 -> Cool Edit Pro v2.0 -> FLAC/16
(1 Disc Audio / 1 Disc FLAC)

All Transfers and Mastering By Charlie Miller
[email protected]
February 29, 2008

Notes:
-- Thanks to Paul Scotton and Joani Walker for the tape
-- Thanks to Joe B. Jones for his help with the pitch correction
-- There may be one more cassette gen

From Paul Scotton:
Set up was done on the fly with the soundcheck already underway.
There is lots of boom because the hall is empty but it still is a fun listen.

Setlist:
snchk1 - It's All Over Now, Baby Blue
snchk2 - To Lay Me Down
snchk3 - Youngblood
snchk4 - Searchin'


SHNTOOL OUTPUT:
    length     expanded size   cdr  WAVE problems filename
     6:43.42       71188028    ---   --   -----   gd80-12-30snchk1.wav
     6:47.25       71853644    ---   --   -----   gd80-12-30snchk2.wav
     2:15.01       23816396    ---   --   -----   gd80-12-30snchk3.wav
     4:20.50       45981644    ---   --   -----   gd80-12-30snchk4.wav
    20:06.43      212839712 B                     (totals for 4 files)
Show Checksums
ffp
gd80-12-30snchk1.flac:cfca474f3421599d88fd7fac69fc6e53
gd80-12-30snchk2.flac:49d70ee0b37bb443ccc704a90cd4c895
gd80-12-30snchk3.flac:9b3c543da243d357d09b25f1a793be63
gd80-12-30snchk4.flac:71da9f1371e490c61b306c06bde91c25
flac-md5
c5daceb44d29b1a402a9fdb62a76d111 *gd80-12-30snchk1.flac
39b59981ee6c7a8d6fb8a9c053600b85 *gd80-12-30snchk2.flac
1597e38108d0114627722f44abdd1218 *gd80-12-30snchk3.flac
9bf31b88ca83cf4236341bb3124abd91 *gd80-12-30snchk4.flac

Comments
Add Comment
Other Sources (comments)
Recording by Steve Rolfe:... (1) flac16; Source:... (0)
Date User Comment