Browse Collections Artists Sources   Search Dates

Add Show    List Management    Help


Grateful Dead 03/03/81
Cleveland Music Hall, Cleveland, OH
Comments Add Comment    Source Collectors    Add to Collection    Add to Want List    History
Source # 90473 Other Sources
Entered by Matt Vernon
Checksums ffp , flac-md5
Disc Counts 2 / 3
Media Size
Date Circulated
Date Added
03/01/2008
03/02/2008
Source Summary flac16; Recording Info: (FOB) Nakamichi 700 (With Bass EQ) -> Cassette Master (Sony D5M/Maxell XLIIS/Dolby B) Transfer Info: Cassette Master (Nakamichi DR-1/Dolby B) -> Sound Devices 744T (24bit/96k) -> Samplitude Professional v10.02 -> FLAC/16 All Transfers and Mastering By Charlie Miller 
  Archive
Source Information - Download Text | Download Zip
Grateful Dead - March 3, 1981
Cleveland Music Hall - Cleveland, OH

Recording Info:
(FOB) Nakamichi 700 (With Bass EQ) -> Cassette Master (Sony D5M/Maxell XLIIS/Dolby B)

Transfer Info:
Cassette Master (Nakamichi DR-1/Dolby B) -> Sound Devices 744T (24bit/96k) ->
Samplitude Professional v10.02 -> FLAC/16
(3 Discs Audio / 2 Discs FLAC)

All Transfers and Mastering By Charlie Miller
[email protected]
February 25, 2008

Patch Info:
(FOB) Sennheiser 421 -> Cassette Master -> CD (shnid=9113) supplies:
Drums (11:54 - 12:11)

Notes:
-- Set 2 is seamless
-- Recorded front row center balcony
-- Thanks to Bob Wagner for lending me his masters

Set 1:
d1t01 - Tuning
d1t02 - Feel Like A Stranger
d1t03 - Peggy-O
d1t04 - Me And My Uncle ->
d1t05 - Big River
d1t06 - Bird Song
d1t07 - Looks Like Rain
d1t08 - Big Railroad Blues
d1t09 - Little Red Rooster ->
d1t10 - Deal

Set 2:
d2t01 - China Cat Sunflower ->
d2t02 - I Know You Rider ->
d2t03 - Samson And Delilah
d2t04 - He's Gone ->
d2t05 - Drums ->
d3t01 - Lost Sailor ->
d3t02 - Saint Of Circumstance ->
d3t03 - Black Peter ->
d3t04 - Good Lovin'

Encore:
d3t05 - Casey Jones


SHNTOOL OUTPUT:
    length     expanded size   cdr  WAVE problems filename
     2:13.13       23491820    ---   --   -----   gd81-03-03d1t01.wav
    10:10.54      107731052    ---   --   -----   gd81-03-03d1t02.wav
     8:53.07       94037708    ---   --   -----   gd81-03-03d1t03.wav
     3:02.51       32224796    ---   --   -----   gd81-03-03d1t04.wav
     6:44.42       71364428    ---   --   -----   gd81-03-03d1t05.wav
    11:15.45      119175884    ---   --   -----   gd81-03-03d1t06.wav
     7:46.46       82310636    ---   --   -----   gd81-03-03d1t07.wav
     4:40.67       49549628    ---   --   -----   gd81-03-03d1t08.wav
     9:44.29      103085852    ---   --   -----   gd81-03-03d1t09.wav
     7:30.51       79499996    ---   --   -----   gd81-03-03d1t10.wav
    11:07.61      117802316    ---   --   -----   gd81-03-03d2t01.wav
     5:42.33       60406460    ---   --   -----   gd81-03-03d2t02.wav
     8:37.04       91208252    ---   --   -----   gd81-03-03d2t03.wav
    16:30.47      174746588    ---   --   -----   gd81-03-03d2t04.wav
    12:35.71      133349036    ---   --   -----   gd81-03-03d2t05.wav
     6:52.49       72792092    ---   --   -----   gd81-03-03d3t01.wav
     7:00.59       74226812    ---   --   -----   gd81-03-03d3t02.wav
    10:20.52      109490348    ---   --   -----   gd81-03-03d3t03.wav
     8:43.66       92412476    ---   --   -----   gd81-03-03d3t04.wav
     5:27.17       57722828    ---   --   -----   gd81-03-03d3t05.wav
   165:01.39     1746629008 B                     (totals for 20 files)
Show Checksums
ffp
gd81-03-03d1t01.flac:c7333150ac047febaa5de699bbcf8938
gd81-03-03d1t02.flac:c7f93b5a323a53254f73d668cbde20dd
gd81-03-03d1t03.flac:c7b3224ee4be3d2b126463d643252e9d
gd81-03-03d1t04.flac:25e15648f5599b73ab8fa3ebb078efa9
gd81-03-03d1t05.flac:9de4a7c5088c02622dd185a665a93abe
gd81-03-03d1t06.flac:b28664c3a8b2cff8cbaabe8d8285d512
gd81-03-03d1t07.flac:fdbadf6cd935717b13f653df8d70f1da
gd81-03-03d1t08.flac:5f277df905371e8401d0b3a72257c9b9
gd81-03-03d1t09.flac:15c11b2d74579b0d641bef7d47a2655e
gd81-03-03d1t10.flac:005c26c0280532c83aa7e8bfb6ae163c
gd81-03-03d2t01.flac:9efd4f9f4ce03b65e55500044a8c65ef
gd81-03-03d2t02.flac:f6aadf032688e0da32560ebd4d47f0c7
gd81-03-03d2t03.flac:1652a12c1cf8d48cfc00c362e9cb724d
gd81-03-03d2t04.flac:f050bdbdc4320258159678beca199fb0
gd81-03-03d2t05.flac:3b359f5daecb419530e26b9bc1464538
gd81-03-03d3t01.flac:35706c30fec04bdf7684d68d3ebb92b2
gd81-03-03d3t02.flac:2dd302ef74eeea21c4ffed660036646f
gd81-03-03d3t03.flac:2f98cc625ded15e5617cb7d67b7cbbe5
gd81-03-03d3t04.flac:bab6e0a75091c9180e750353e61a03e5
gd81-03-03d3t05.flac:8fc0cca10279b75dd778f3eb8cb8569d
flac-md5
aa3008dc1231d26f7cdc87c880036fd0 *gd81-03-03d1t01.flac
311943f15c13675fc1c1ccc5357baaf4 *gd81-03-03d1t02.flac
70b67ea7c5d68702bfae44b4cd1c3c27 *gd81-03-03d1t03.flac
8bfec045ab941cc5e108de5102ebba4c *gd81-03-03d1t04.flac
7e7c350dd01b3e3a3689bf1d9d8b43dd *gd81-03-03d1t05.flac
2d6b4bdbb5be80be81b1be362ee02641 *gd81-03-03d1t06.flac
7722717b6c8b61edf6ccd6e43aeb61db *gd81-03-03d1t07.flac
8ef440af4b717b0c3f670299e3a1e010 *gd81-03-03d1t08.flac
60340b1503d3be4f1b6260ed9faeafad *gd81-03-03d1t09.flac
4ddbd4bf027a1cb5f978c1a4fa888a70 *gd81-03-03d1t10.flac
9b6bd8f4bd3d922a6275e29ae0b230a7 *gd81-03-03d2t01.flac
b670f85735610a834f88f46db8c903aa *gd81-03-03d2t02.flac
87165953b96cb8620c430d6741cecc44 *gd81-03-03d2t03.flac
9cd8c3ae9001cf3b6ef5401cafc50df0 *gd81-03-03d2t04.flac
27053a0e193dbf774ee72b8ee93ef10b *gd81-03-03d2t05.flac
3a8e239eff337020a8d1cfbe2fff9ced *gd81-03-03d3t01.flac
a39fe362ff19bbdbd65458f430d7cd23 *gd81-03-03d3t02.flac
9897f748d31334a91353cdd205ce1345 *gd81-03-03d3t03.flac
b3424c74262d70e872d09be8f9ce4d3c *gd81-03-03d3t04.flac
9129b50de1eda40fa67cfbae7b1f3559 *gd81-03-03d3t05.flac

Comments
Add Comment
Other Sources (comments)
aud> mics?> cassette... (0) Recording by Mark Horvath:... (1) Recording by Bob Wagner;... (2) flac16; Recording by... (0) flac16; Recording... (2) flac16; Recording... (0) flac16; Source Info:... (1) flac24; Source Info:... (1)
Date User Comment