Browse Collections Artists Sources   Search Dates

Add Show    List Management    Help


Allman Brothers Band 05/23/70
Dekalb College, Atlanta, GA
Comments Add Comment    Source Collectors    Add to Collection    Add to Want List    History
Source # 90488 Other Sources
Entered by
Checksums alt.flac.ffp , alt.flac.md5 , flac.ffp , flac.md5
Disc Counts 1 / 1
Media Size
Date Circulated
Date Added
03/01/2007
03/03/2008
Source Summary Captain Skip Remaster., Source not given.
Original source labeled "Peach Cobbler Vol. 6" and "source: ??? > cdr > eac > wav > flac"
Other copies are likely CD > ? FLAC re-do jobs, lack source info, and have badly-formatted text files or other changes from the information below.  
Source Information - Download Text | Download Zip
Allman Brothers Band
Columbia HS Auditorium,
Decatur, GA
05/23/1970

Peach Cobbler Volume 6

source: ??? > cdr > eac > wav > flac


01   Mountain Jam Intro
02   Drums
03   Berry bass solo
04   Mountain Jam
05   Will The Circle Be Unbroken
06   Bo Diddley > Spacey Jam
07   Mountain Jam
08   Rock And Roll Jam
09   Mountain Jam finale

encore:

10   encore intro
11   Don't Want You No More
12   Not My Cross To Bear

comment:

Captain Skipper remaster

files extracted by Paul McFadyen
files renamed to Etree convention, shntool and md5 by SIRMick

shntool output:

    length     expanded size   cdr  WAVE problems filename
     8:09.73       86431340    ---   --   ---xx   abb1970-05-23t01.flac
     5:26.67       57664028    ---   --   ---xx   abb1970-05-23t02.flac
     8:33.60       90634364    ---   --   ---xx   abb1970-05-23t03.flac
     5:09.50       54625244    ---   --   ---xx   abb1970-05-23t04.flac
     5:45.60       60999164    ---   --   ---xx   abb1970-05-23t05.flac
    11:48.10      124914764    ---   --   ---xx   abb1970-05-23t06.flac
     2:28.24       26163692    ---   --   ---xx   abb1970-05-23t07.flac
     2:31.01       26638796    ---   --   ---xx   abb1970-05-23t08.flac
     5:03.25       53508044    ---   --   ---xx   abb1970-05-23t09.flac
     0:49.25        8702444    ---   --   ---xx   abb1970-05-23t10.flac
     2:21.00       24872444    ---   --   ---xx   abb1970-05-23t11.flac
     5:19.68       56431580    ---   --   ---xx   abb1970-05-23t12.flac
    63:27.13      671585904 B                     (totals for 12 files, 0.6928 overall compression ratio)


flac fingerprints;

abb1970-05-23t01.flac:afa6dff66a0f0e0379cdc96a587aeaea
abb1970-05-23t02.flac:e59b1b396d5f0c9e811f833bfccd9a18
abb1970-05-23t03.flac:b17bea48e907b0d5bf854278e656c6b0
abb1970-05-23t04.flac:302e7298a49d3953e069ddafafe0d939
abb1970-05-23t05.flac:ca725857bc8183e01ac42251c2105ff0
abb1970-05-23t06.flac:b04e65ff7ba12f3f83a43f34c2779b95
abb1970-05-23t07.flac:e80d1af6b1c2984cb848a8ee350a0c2e
abb1970-05-23t08.flac:4ec6f4a73d78def7ffc6add3f09aa4ce
abb1970-05-23t09.flac:834bdff8772cded0e5eb2fa2c67ad20f
abb1970-05-23t10.flac:75ff5149be1b1d22e2c4e05045489416
abb1970-05-23t11.flac:0b2f76abd8ccb046fc2f9be4875661dd
abb1970-05-23t12.flac:6aa18724b6a5264335c6c07c6495e612


Show Checksums
alt.flac.ffp
abb70-05-23t01.flac:efa3b1134eed9e78ea489d499325de4d
abb70-05-23t02.flac:5ae9af888379d1b8557069723fc8b35e
abb70-05-23t03.flac:80be92828b65327e6c82b61e103e63b1
abb70-05-23t04.flac:03f78766fb27b74398667b48c68157f0
abb70-05-23t05.flac:9e790b94f0f1596cbd5adc540dcd6426
abb70-05-23t06.flac:7f60594f2cec8af29c80f3e39a705417
abb70-05-23t07.flac:e04ea197eb87fef51385fff0d70c069d
abb70-05-23t08.flac:cc8766939f957c35432957dbf003c4e6
abb70-05-23t09.flac:bade03bdbedbfcc5101add6d73566c13
abb70-05-23t10.flac:68433e81c359f230fcd6e159c04c09b8
abb70-05-23t11.flac:24eec63a39230b372c478a93d8f6af89
abb70-05-23t12.flac:1dfd3b65221f487a4c38b72556c2c91b
alt.flac.md5
7f954058660c63b275ec753393bc4d04 *abb70-05-23t01.flac
951b7d294cbd3a23ebeed982ffc947a7 *abb70-05-23t02.flac
09a10c53dd3be96bca0772101a9a9506 *abb70-05-23t03.flac
a879ba80e8ff1bfdce50170361b0d210 *abb70-05-23t04.flac
90c67f99ece83439265299f1ce09647c *abb70-05-23t05.flac
03dcc60bfe6d6e8453c7ecd43502b22d *abb70-05-23t06.flac
14626d881d0f880a08f18fba2982b88c *abb70-05-23t07.flac
0b1db277b0313ef9be34069b04974cea *abb70-05-23t08.flac
e83093653b882183897f1a1fd9afab9c *abb70-05-23t09.flac
fe5363f6eb25fe6abcc8c9b4de98bdef *abb70-05-23t10.flac
e585d7e8059636a95f0bc6fa7e44f5bf *abb70-05-23t11.flac
cbd6603cf708487fa8e92d925bf2731f *abb70-05-23t12.flac
flac.ffp
abb1970-05-23t01.flac:afa6dff66a0f0e0379cdc96a587aeaea
abb1970-05-23t02.flac:e59b1b396d5f0c9e811f833bfccd9a18
abb1970-05-23t03.flac:b17bea48e907b0d5bf854278e656c6b0
abb1970-05-23t04.flac:302e7298a49d3953e069ddafafe0d939
abb1970-05-23t05.flac:ca725857bc8183e01ac42251c2105ff0
abb1970-05-23t06.flac:b04e65ff7ba12f3f83a43f34c2779b95
abb1970-05-23t07.flac:e80d1af6b1c2984cb848a8ee350a0c2e
abb1970-05-23t08.flac:4ec6f4a73d78def7ffc6add3f09aa4ce
abb1970-05-23t09.flac:834bdff8772cded0e5eb2fa2c67ad20f
abb1970-05-23t10.flac:75ff5149be1b1d22e2c4e05045489416
abb1970-05-23t11.flac:0b2f76abd8ccb046fc2f9be4875661dd
abb1970-05-23t12.flac:6aa18724b6a5264335c6c07c6495e612
flac.md5
814233ae55435d416360d721d4e7a3f5 *abb1970-05-23t01.flac
8aff87fe28592e79acbf613b11364968 *abb1970-05-23t02.flac
16b1b44a8b12e69a5e727b98557393a9 *abb1970-05-23t03.flac
349e34dfa862f140f983ead75d11e8b8 *abb1970-05-23t04.flac
b1fa1888eb6d1ffa03033d81eb523c56 *abb1970-05-23t05.flac
6c938dc760e721cabeb75148c841c5a4 *abb1970-05-23t06.flac
258ee1a3a272cc51b6f6d0ea58c7037c *abb1970-05-23t07.flac
881111295ef6c65a1fd4b2de04a851d2 *abb1970-05-23t08.flac
f76625676dfb482741250c4863bf46ab *abb1970-05-23t09.flac
a43fe5ec6e771db7cdec7ffecabef093 *abb1970-05-23t10.flac
3fae40d1b1eafdd2345c67e598195dd4 *abb1970-05-23t11.flac
49c70f98ce610516f4a104b13c8946f0 *abb1970-05-23t12.flac

Comments
Add Comment
Date User Comment