Browse Collections Artists Sources   Search Dates

Add Show    List Management    Help


Grateful Dead 11/30/80
Fox Theater, Atlanta, GA
Comments Add Comment    Source Collectors    Add to Collection    Add to Want List    History
Source # 90497 Other Sources
Entered by Matt Vernon
Checksums ffp , flac-md5
Disc Counts 1 / 2
Media Size
Date Circulated
Date Added
03/03/2008
03/03/2008
Source Summary flac16; Set 2 only, Recording Info: (FOB) Nakamichi 700 (With Bass EQ) -> Cassette Master (Sony D5M/TDK SA-X90/Dolby B) Transfer Info: Cassette Master (Nakamichi DR-1/Dolby B) -> Sound Devices 744T (24bit/96k) -> Samplitude Professional v10.02 -> FLAC/16 All Transfers and Mastering By Charlie Miller 
  Archive
Source Information - Download Text | Download Zip
Grateful Dead - November 30, 1980
Fox Theatre - Atlanta, GA
**SET 2 ONLY**

Recording Info:
(FOB) Nakamichi 700 (With Bass EQ) -> Cassette Master (Sony D5M/TDK SA-X90/Dolby B)

Transfer Info:
Cassette Master (Nakamichi DR-1/Dolby B) -> Sound Devices 744T (24bit/96k) ->
Samplitude Professional v10.02 -> FLAC/16
(2 Discs Audio / 1 Disc FLAC)

All Transfers and Mastering By Charlie Miller
[email protected]
March 3, 2008

Notes:
-- Disc change is seamless
-- Recorded front row center balcony
-- Thanks to Bob Wagner for lending me his masters
-- 1st Set had poor sound due to different location and wasn't transferred

Set 2:
d2t01 - Tuning
d2t02 - Scarlet Begonias ->
d2t03 - Fire On The Mountain
d2t04 - Samson And Delilah
d2t05 - Ship Of Fools
d2t06 - Playing In The Band ->
d2t07 - Drums ->
d3t01 - Space ->
d3t02 - The Wheel ->
d3t03 - China Doll ->
d3t04 - Around And Around ->
d3t05 - Johnny B. Goode

Encore:
d3t06 - Uncle John's Band


SHNTOOL OUTPUT:
    length     expanded size   cdr  WAVE problems filename
     1:12.61       12844316    ---   --   -----   gd80-11-30d2t01.wav
    11:29.37      121626668    ---   --   -----   gd80-11-30d2t02.wav
    11:01.56      116732156    ---   --   -----   gd80-11-30d2t03.wav
     8:22.31       88625756    ---   --   -----   gd80-11-30d2t04.wav
     9:48.16      103760876    ---   --   -----   gd80-11-30d2t05.wav
    15:49.49      167518892    ---   --   -----   gd80-11-30d2t06.wav
     9:22.01       99139196    ---   --   -----   gd80-11-30d2t07.wav
     4:30.47       47738588    ---   --   -----   gd80-11-30d3t01.wav
     6:51.57       72634508    ---   --   -----   gd80-11-30d3t02.wav
     6:48.15       72006524    ---   --   -----   gd80-11-30d3t03.wav
     4:00.69       42498332    ---   --   -----   gd80-11-30d3t04.wav
     5:20.53       56572700    ---   --   -----   gd80-11-30d3t05.wav
     7:46.08       82221260    ---   --   -----   gd80-11-30d3t06.wav
   102:24.50     1083919772 B                     (totals for 13 files)
Show Checksums
ffp
gd80-11-30d2t01.flac:601a10fa9d18c823bc427bd7441e9453
gd80-11-30d2t02.flac:600ade5d732ac364b523d67351251bd0
gd80-11-30d2t03.flac:aed7c5e57288e34fdebeb783948b2c96
gd80-11-30d2t04.flac:8fe5c71a0aca3ffb6e6e1f243a06c1f2
gd80-11-30d2t05.flac:34591fbe699a4739252be49592320ee6
gd80-11-30d2t06.flac:de46bf6e773b1f714bb0693e354fe1f2
gd80-11-30d2t07.flac:386d25835a2bd0ba0fffe953242bb4ba
gd80-11-30d3t01.flac:cdacf739cf4cd76929be6ee411f24651
gd80-11-30d3t02.flac:1b2ab9deeaeddbfe171ce3e11f9f7e69
gd80-11-30d3t03.flac:7f02202405b7aa086a308ed67c32e7da
gd80-11-30d3t04.flac:e3470bb94d21f75435612cccd30251f8
gd80-11-30d3t05.flac:0cca9e64b6e318c94fa1f78bc12f6d0a
gd80-11-30d3t06.flac:2480c521d9e89faecbe40c41e05b15ef
flac-md5
a57e071024894839dea2050b366e48dd *gd80-11-30d2t01.flac
b7fb73cbf1918b152803c1d6e2d94261 *gd80-11-30d2t02.flac
a5239d2906cb89faaef17a9a1f02f9a6 *gd80-11-30d2t03.flac
ba86ec1458b5b91fd3c5b64587e6adf4 *gd80-11-30d2t04.flac
67872237561e33b3e8c37903017f11f4 *gd80-11-30d2t05.flac
1f7a1ce96ce801f7f6c5c9a63802b740 *gd80-11-30d2t06.flac
0e20c40804e2fe39bcde72475e3f8761 *gd80-11-30d2t07.flac
84d179d31d88c332c5790e34f9c6d715 *gd80-11-30d3t01.flac
b6312e2a4e707e254039a4b86cc8fc2d *gd80-11-30d3t02.flac
aac57514bba69c294b6e869fde3e2cc2 *gd80-11-30d3t03.flac
f3b3b808821a3bffb2c9f1e8d9d58c2e *gd80-11-30d3t04.flac
0a98914b24d438781a94612c51f0f4e4 *gd80-11-30d3t05.flac
073747cd3f805ff0aae931e79949f8b8 *gd80-11-30d3t06.flac

Comments
Add Comment
Other Sources (comments)
complete; MSC> Reel> DATs>... (6) flac24; Recording... (0) flac16; Set 1 Only,... (0) flac16; Source:... (0) flac24; Partial... (0) flac24; Set 1 -... (0) flac16; Recorded By... (0)
Date User Comment