Browse Collections Artists Sources   Search Dates

Add Show    List Management    Help


Drive-By Truckers 02/25/08
The Slowdown, Omaha, NE
Comments Add Comment    Source Collectors    Add to Collection    Add to Want List    History
Source # 90515 Other Sources
Entered by Kyle pike
Checksums ffp
Disc Counts 0 / 0
Media Size
Date Circulated
Date Added
02/26/08
03/04/2008
Source Summary [16 bit] Neumann ak40 > lc3 > km100 > Oade-mod Edirol R4 (Dustin Hassenstab) 
Source Information - Download Text | Download Zip
Drive-By Truckers
Monday
02/25/08
The Slowdown
Omaha, NE


Source: Neumann ak40 -> lc3 -> km100 -> Oade-mod Edirol R4 Pro @ 24/48
Location: DIN / approx 11' up / approx 40' from stage
Transfer: .wav -> CD Wave Editor -> WaveLab -> .flac16 (6)(ASB)
Recorded by Dustin Hassenstab and Jonas Thomas
Transferred, tracked, flac'd and seeded by Dustin Hassenstab


Disc 1
01. [03:59] Two Daughters and Beautiful Wife
02. [04:54] Daddy Needs a Drink
03. [03:22] Perfect Timing
04. [06:55] Puttin' People on the Moon
05. [03:13] Three Dimes Down
06. [04:36] The Righteous Path
07. [06:01] Where The Devil Don't Stay
08. [03:21] I'm Sorry Huston
09. [04:31] Sink Hole
10. [06:40] The Living Bubba
11. [04:46] A Ghost to Most
12. [07:49] The Opening Act
13. [04:47] Home Field Advantage

Disc 2
01. [06:10] Story of...
02. [04:35] 18 Wheels Of Love
03. [03:36] Gravity's Gone
04. [05:46] Hell No I Ain't Happy
05. [05:18] Lookout Mountain
06. [05:00] crowd -> Patterson speaks
Encore:
07. [05:55] Marry Me
08. [05:35] Zip City
09. [08:33] Buttholeville -> State Trooper -> Buttholeville*
10. [06:29] People Who Died*

* with Craig Lieske on guitar

    length     expanded size   cdr  WAVE problems filename
     3:59.65       42312524    ---   --   ---xx   dbt2008-02-25.ak40.d1t01.flac
     4:54.09       51882812    ---   --   ---xx   dbt2008-02-25.ak40.d1t02.flac
     3:22.38       35722220    ---   --   ---xx   dbt2008-02-25.ak40.d1t03.flac
     6:55.48       73318940    ---   --   ---xx   dbt2008-02-25.ak40.d1t04.flac
     3:13.11       34071116    ---   --   ---xx   dbt2008-02-25.ak40.d1t05.flac
     4:36.70       48851084    ---   --   ---xx   dbt2008-02-25.ak40.d1t06.flac
     6:01.19       63725132    ---   --   ---xx   dbt2008-02-25.ak40.d1t07.flac
     3:21.25       35515244    ---   --   ---xx   dbt2008-02-25.ak40.d1t08.flac
     4:31.74       47978492    ---   --   ---xx   dbt2008-02-25.ak40.d1t09.flac
     6:40.12       70588268    ---   --   ---xx   dbt2008-02-25.ak40.d1t10.flac
     4:46.57       50584508    ---   --   ---xx   dbt2008-02-25.ak40.d1t11.flac
     7:49.41       82828076    ---   --   ---xx   dbt2008-02-25.ak40.d1t12.flac
     4:47.66       50782076    ---   --   ---xx   dbt2008-02-25.ak40.d1t13.flac
     6:10.67       65425628    ---   --   ---xx   dbt2008-02-25.ak40.d2t01.flac
     4:35.74       48684092    ---   --   ---xx   dbt2008-02-25.ak40.d2t02.flac
     3:36.57       38236508    ---   --   ---xx   dbt2008-02-25.ak40.d2t03.flac
     5:46.40       61128524    ---   --   ---xx   dbt2008-02-25.ak40.d2t04.flac
     5:18.07       56111708    ---   --   ---xx   dbt2008-02-25.ak40.d2t05.flac
     5:00.01       52922396    ---   --   ---xx   dbt2008-02-25.ak40.d2t06.flac
     5:55.68       62781980    ---   --   ---xx   dbt2008-02-25.ak40.d2t07.flac
     5:35.08       59112860    ---   --   ---xx   dbt2008-02-25.ak40.d2t08.flac
     8:33.56       90624956    ---   --   ---xx   dbt2008-02-25.ak40.d2t09.flac
     6:29.59       68758412    ---   --   ---xx   dbt2008-02-25.ak40.d2t10.flac
   122:03.72     1291947556 B                     (totals for 23 files, 0.5642 overall compression ratio)


Show Checksums
ffp
dbt2008-02-25.ak40.d1t01.flac:a69985e51f6925e72f2f61d20621c2c1
dbt2008-02-25.ak40.d1t02.flac:274e3b8b30de129cd58af8c7472a4e58
dbt2008-02-25.ak40.d1t03.flac:7b5bd6bd80ae847c6ef5e587faa5846b
dbt2008-02-25.ak40.d1t04.flac:a0a3e20fbe6ec5a39d089c8580554dd5
dbt2008-02-25.ak40.d1t05.flac:e9c2f666f5d999c4314724191461169f
dbt2008-02-25.ak40.d1t06.flac:74bafdd5cf094ef4a09f1506ad953e25
dbt2008-02-25.ak40.d1t07.flac:c07db62d5e82f7e80d3a78c7614e2b61
dbt2008-02-25.ak40.d1t08.flac:041a3f5b83f9418b541b0cbdb8610ab1
dbt2008-02-25.ak40.d1t09.flac:85e317f6600967f804397085b8e87143
dbt2008-02-25.ak40.d1t10.flac:c505ebbc5114777e46493d7559978a4f
dbt2008-02-25.ak40.d1t11.flac:3bce0256b0a9733dceeeee3fe0feab8c
dbt2008-02-25.ak40.d1t12.flac:20038f18d1d3d5337c0dddb863b8e90d
dbt2008-02-25.ak40.d1t13.flac:6dc85c611e7763be896f236f1553c4e2
dbt2008-02-25.ak40.d2t01.flac:a4f1e2fb41b63f690e260fe39216dbc4
dbt2008-02-25.ak40.d2t02.flac:094387913fba97725cda76e3c9a331fb
dbt2008-02-25.ak40.d2t03.flac:e8e0b98326021c315a2e1cc63dca5c91
dbt2008-02-25.ak40.d2t04.flac:72248de8cd32b3a13eddea347ff0d5f9
dbt2008-02-25.ak40.d2t05.flac:3625920acb1387b7e37c2ba77e3f523a
dbt2008-02-25.ak40.d2t06.flac:9e111fe0ce58e9dd3a82550f23245fa2
dbt2008-02-25.ak40.d2t07.flac:e5f0fab393438154eeb8fdd3b9d6a28d
dbt2008-02-25.ak40.d2t08.flac:3432c2edd2c7be6f6b021b76f758c51c
dbt2008-02-25.ak40.d2t09.flac:095c6f8f2ed5c3b7c2dfbaf38afb509e
dbt2008-02-25.ak40.d2t10.flac:07a16eb0a0863657a25a07858e87179d

Comments
Add Comment
Other Sources (comments)
[24bit] Neumann ak40 > lc3... (0) [16 Bit] AKG C 414B-XLS/ST... (0) 24bit AKG C... (0)
Date User Comment