Browse Collections Artists Sources   Search Dates

Add Show    List Management    Help


Grateful Dead 11/30/80
Fox Theater, Atlanta, GA
Comments Add Comment    Source Collectors    Add to Collection    Add to Want List    History
Source # 90530 Other Sources
Entered by Matt Vernon
Checksums ffp , flac-md5
Disc Counts 3 / 0
Media Size
Date Circulated
Date Added
03/04/2008
03/04/2008
Source Summary flac24; Recording Info: (FOB) Nakamichi 700 (With Bass EQ) -> Cassette Master (Sony D5M/TDK SA-X90/Dolby B) Transfer Info: Cassette Master (Nakamichi DR-1/Dolby B) -> Sound Devices 744T (24bit/96k) -> Samplitude Professional v10.02 -> FLAC/24 All Transfers and Mastering By Charlie Miller 
  Archive
Source Information - Download Text | Download Zip
Grateful Dead - November 30, 1980
Fox Theatre - Atlanta, GA
**THIS IS A 24-BIT VERSION**
**SET 2 ONLY**

Recording Info:
(FOB) Nakamichi 700 (With Bass EQ) -> Cassette Master (Sony D5M/TDK SA-X90/Dolby B)

Transfer Info:
Cassette Master (Nakamichi DR-1/Dolby B) -> Sound Devices 744T (24bit/96k) ->
Samplitude Professional v10.02 -> FLAC/24
(1 DVD FLAC)

All Transfers and Mastering By Charlie Miller
[email protected]
March 3, 2008

Notes:
-- Recorded front row center balcony
-- Thanks to Bob Wagner for lending me his masters
-- 1st Set had poor sound due to different location and wasn't transferred
-- This is a 24-bit version...a 16-bit version also circulates

Set 2:
s2t01 - Tuning
s2t02 - Scarlet Begonias ->
s2t03 - Fire On The Mountain
s2t04 - Samson And Delilah
s2t05 - Ship Of Fools
s2t06 - Playing In The Band ->
s2t07 - Drums ->
s2t08 - Space ->
s2t09 - The Wheel ->
s2t10 - China Doll ->
s2t11 - Around And Around ->
s2t12 - Johnny B. Goode

Encore:
s2t13 - Uncle John's Band


SHNTOOL OUTPUT:
    length     expanded size   cdr  WAVE problems filename
     1:12.827      41948204    cxx   --   -----   gd80-11-30s2t01.wav
    11:29.493     397148204    cxx   --   -----   gd80-11-30s2t02.wav
    11:01.747     381166124    cxx   --   -----   gd80-11-30s2t03.wav
     8:22.413     289390124    cxx   --   -----   gd80-11-30s2t04.wav
     9:48.213     338810924    cxx   --   -----   gd80-11-30s2t05.wav
    15:49.653     547000364    cxx   --   -----   gd80-11-30s2t06.wav
     9:22.013     323719724    cxx   --   -----   gd80-11-30s2t07.wav
     4:30.627     155881004    cxx   --   -----   gd80-11-30s2t08.wav
     6:51.760     237173804    cxx   --   -----   gd80-11-30s2t09.wav
     6:48.200     235123244    cxx   --   -----   gd80-11-30s2t10.wav
     4:00.920     138769964    cxx   --   -----   gd80-11-30s2t11.wav
     5:20.707     184727084    cxx   --   -----   gd80-11-30s2t12.wav
     7:46.088     268466678    cxx   --   -----   gd80-11-30s2t13.wav
   102:24.661    3539325446 B                     (totals for 13 files)
Show Checksums
ffp
gd80-11-30s2t01.flac:69070b5c2d9eb716a99af9dbfc074a0f
gd80-11-30s2t02.flac:7e789f5019285a46352208e257c51f89
gd80-11-30s2t03.flac:7dd3cb2530af6bee2fcfd720052c5698
gd80-11-30s2t04.flac:ecfb5768bcde8b8c18391b0d45037ede
gd80-11-30s2t05.flac:c681a530152d2d98cdd7c287a749e566
gd80-11-30s2t06.flac:35963e964160e26066db0559388df574
gd80-11-30s2t07.flac:133a04f233004e82ec4a373e8bf05e33
gd80-11-30s2t08.flac:cd5f9d739f05b6c0655ce552d0cc48fe
gd80-11-30s2t09.flac:632b960990ddfe37f4077e8c1989a4a5
gd80-11-30s2t10.flac:adea1428f4b68784e3c5a429c40aa30a
gd80-11-30s2t11.flac:6858f0413a22ee1132f2bd7c2c080bde
gd80-11-30s2t12.flac:d76b0d179ea3e9cc2d87befad8c157d3
gd80-11-30s2t13.flac:16c8552ff32a9f9ca6d8e417fb5612b9
flac-md5
0618fc0dfb0967e7b9c1de8f609d5d1a *gd80-11-30s2t01.flac
ec6e1ec66b71b0f586c49299515c080a *gd80-11-30s2t02.flac
763ddf6c1b2084ecc9bffa171d174ccf *gd80-11-30s2t03.flac
892a15d371e5c259d9b9a232bce2fc57 *gd80-11-30s2t04.flac
a2676d310472d90c26c18aae7262bd00 *gd80-11-30s2t05.flac
ee47711e63646211c14a4c365a2ca5ae *gd80-11-30s2t06.flac
7f07150838a567874b3e18e8c32ad4c9 *gd80-11-30s2t07.flac
3f8a0712b49315ed7ed439ba0d3e1e94 *gd80-11-30s2t08.flac
ae7529960f90f2c286d52a45823ea4c2 *gd80-11-30s2t09.flac
b193744872ab146a10c0368af9daaed8 *gd80-11-30s2t10.flac
7d55049aa5b15bc6348edba200c119a0 *gd80-11-30s2t11.flac
f23c12e937695cab690bfc808dfb6b86 *gd80-11-30s2t12.flac
e720e81eaf5e50ddfe87b57ac917f155 *gd80-11-30s2t13.flac

Comments
Add Comment
Other Sources (comments)
complete; MSC> Reel> DATs>... (6) flac16; Set 2 only,... (0) flac16; Set 1 Only,... (0) flac16; Source:... (0) flac24; Partial... (0) flac24; Set 1 -... (0) flac16; Recorded By... (0)
Date User Comment