Browse Collections Artists Sources   Search Dates

Add Show    List Management    Help


Grateful Dead 11/25/79
Pauley Pavilion, UCLA, Los Angeles, CA
Comments Add Comment    Source Collectors    Add to Collection    Add to Want List    History
Source # 90636 Other Sources
Entered by Matt Vernon
Checksums flac-md5 , ffp
Disc Counts 2 / 3
Media Size
Date Circulated
Date Added
03/07/2008
03/07/2008
Source Summary flac16; Analog Audience Source: Master Cassettes [FOB, 60' from stage] (MAC) Medium Stock Brands: MAC = Maxell UD XL II Analog Lineage: 2 x Nakamichi CM-700 => Sony TC-D5 >> MAC Analog Sound Preservation: MAC >> Nakamichi DR-8 => Korg MR-1000 >> DSF [1-bit 5.6448 MHz Stereo] >> Korg MR-1000 => Korg AudioGate >> WAV [24/96] Taped By: Bob Menke Transfer By: Bob Menke Mastering By: Derek McCabe 
  Archive
Source Information - Download Text | Download Zip
MOTB Release: 0062 16/44.1
Release Date: 2008-03-07
Band: Grateful Dead
Date: 1979-11-25 (Sunday)
Venue: Pauley Pavilion - University of California
Location: Los Angeles, CA
Analog Audience Source: Master Cassettes [FOB, 60' from stage] (MAC)
Medium Stock Brands: MAC = Maxell UD XL II
Analog Lineage: 2 x Nakamichi CM-700 => Sony TC-D5 >> MAC
Analog Sound Preservation: MAC >> Nakamichi DR-8 => Korg MR-1000 >> DSF [1-bit 5.6448 MHz Stereo] >> Korg MR-1000 => Korg AudioGate >> WAV [24/96]
Taped By: Bob Menke
Transfer By: Bob Menke
Mastering By: Derek McCabe

Set 1
d1t01 - Jack Straw
d1t02 - Tennessee Jed
d1t03 - Me And My Uncle >
d1t04 - Big River
d1t05 - Loser
d1t06 - New Minglewood Blues
d1t07 - Easy To Love You
d1t08 - Althea
d1t09 - Lost Sailor >
d1t10 - Saint Of Circumstance >
d1t11 - Deal

Set 2
d2t01 - Shakedown Street >
d2t02 - Bertha
d2t03 - Looks Like Rain
d2t04 - He's Gone >
d2t05 - The Other One >
d2t06 - Drums >
d3t01 - Space >
d3t02 - Truckin' >
d3t03 - Stella Blue >
d3t04 - Good Lovin'

Encore
d3t05 - Johnny B. Goode

Mastering Notes
-- Crossfaded numerous tape pauses. The tape was paused during most of the song breaks in Set 1, and for a few in Set 2.
-- d2t06 - Tape flip during "Drums" crossfaded.

Notes
-- This is a beautiful recording with wonderful separation of the instruments.

   length     expanded size    cdr  WAVE problems  fmt   ratio  filename
     7:44.59       81988412 B   ---   --   ---xx   flac  0.5961  gd1979-11-25.motb.0062.d1t01.flac
     8:40.11       91753916 B   ---   --   ---xx   flac  0.6135  gd1979-11-25.motb.0062.d1t02.flac
     3:07.53       33111500 B   ---   --   ---xx   flac  0.6218  gd1979-11-25.motb.0062.d1t03.flac
     6:33.20       69372284 B   ---   --   ---xx   flac  0.6213  gd1979-11-25.motb.0062.d1t04.flac
     7:00.11       74113916 B   ---   --   ---xx   flac  0.5999  gd1979-11-25.motb.0062.d1t05.flac
     8:10.51       86555996 B   ---   --   ---xx   flac  0.6164  gd1979-11-25.motb.0062.d1t06.flac
     4:32.15       48016124 B   ---   --   ---xx   flac  0.6016  gd1979-11-25.motb.0062.d1t07.flac
     8:34.62       90815468 B   ---   --   ---xx   flac  0.5997  gd1979-11-25.motb.0062.d1t08.flac
     6:17.37       66589868 B   ---   --   ---xx   flac  0.6083  gd1979-11-25.motb.0062.d1t09.flac
     5:20.52       56570348 B   ---   --   ---xx   flac  0.6445  gd1979-11-25.motb.0062.d1t10.flac
     5:09.39       54599372 B   ---   --   ---xx   flac  0.6391  gd1979-11-25.motb.0062.d1t11.flac
    13:19.13      140974220 B   ---   --   ---xx   flac  0.6407  gd1979-11-25.motb.0062.d2t01.flac
     7:29.39       79295372 B   ---   --   ---xx   flac  0.6496  gd1979-11-25.motb.0062.d2t02.flac
     8:02.07       85041308 B   ---   --   ---xx   flac  0.5999  gd1979-11-25.motb.0062.d2t03.flac
    11:12.16      118578476 B   ---   --   ---xx   flac  0.5900  gd1979-11-25.motb.0062.d2t04.flac
    12:13.39      129392972 B   ---   --   ---xx   flac  0.6271  gd1979-11-25.motb.0062.d2t05.flac
     9:09.73       97015340 B   ---   --   ---xx   flac  0.5527  gd1979-11-25.motb.0062.d2t06.flac
     2:59.29       31643852 B   ---   --   ---xx   flac  0.4917  gd1979-11-25.motb.0062.d3t01.flac
     7:57.67       84300428 B   ---   --   ---xx   flac  0.6208  gd1979-11-25.motb.0062.d3t02.flac
    10:41.42      113171228 B   ---   --   ---xx   flac  0.5539  gd1979-11-25.motb.0062.d3t03.flac
     8:37.34       91278812 B   ---   --   ---xx   flac  0.6246  gd1979-11-25.motb.0062.d3t04.flac
     4:35.59       48648812 B   ---   --   ---xx   flac  0.6320  gd1979-11-25.motb.0062.d3t05.flac
   167:30.03     1772828024 B                            0.6080  (22 files)
Show Checksums
flac-md5
a65e3e816268db20aba08389b7ec036f *gd1979-11-25.motb.0062.d1t01.flac
ff3f30cbe5966cf019e9cb661e339bd2 *gd1979-11-25.motb.0062.d1t02.flac
710316c4662e617782a0577e05cca053 *gd1979-11-25.motb.0062.d1t03.flac
334fdbb12ad168114ce32a938226c27d *gd1979-11-25.motb.0062.d1t04.flac
bf7d8a6ffcabe313c5a6ebf6a49905ab *gd1979-11-25.motb.0062.d1t05.flac
b8fea361fca9785723112a04cedec099 *gd1979-11-25.motb.0062.d1t06.flac
3a6d181ff81726a46dcb86e8e6d18983 *gd1979-11-25.motb.0062.d1t07.flac
8db43817788a3c5c7f8e79bda875bf46 *gd1979-11-25.motb.0062.d1t08.flac
4d0571dee97cf6010aea9a0466ec27c1 *gd1979-11-25.motb.0062.d1t09.flac
faa23b7ae8297045b4c43d14cc6f2eb7 *gd1979-11-25.motb.0062.d1t10.flac
a290eb116dadeda7ab042212f8e67d8d *gd1979-11-25.motb.0062.d1t11.flac
aa135baf082698544a1d793863f59a51 *gd1979-11-25.motb.0062.d2t01.flac
e1ec37e0fa5809ca4bd066fea5f335ff *gd1979-11-25.motb.0062.d2t02.flac
120a5a530fff92495f4ff4d973639786 *gd1979-11-25.motb.0062.d2t03.flac
b48dfa033fac7e953d859d41227e04e3 *gd1979-11-25.motb.0062.d2t04.flac
4a47afc24eab27d4e264fbceab09fce3 *gd1979-11-25.motb.0062.d2t05.flac
b477ce1e3050b7f9fd3237927a93f1e1 *gd1979-11-25.motb.0062.d2t06.flac
6810f761bf47abc9b25c3f4881536e41 *gd1979-11-25.motb.0062.d3t01.flac
b8d8569713c6cd30ed47185b2253e92e *gd1979-11-25.motb.0062.d3t02.flac
7eb6b590401f9fa1d547571729dc42f7 *gd1979-11-25.motb.0062.d3t03.flac
73f02371b54596e0c17133f8281d077f *gd1979-11-25.motb.0062.d3t04.flac
e86f210aff1c4356716f9aafb1aa15ad *gd1979-11-25.motb.0062.d3t05.flac
ffp
gd1979-11-25.motb.0062.d1t01.flac:993e5be94eb310c29813b44f801711d1
gd1979-11-25.motb.0062.d1t02.flac:fbffb87ebc69b8d9cf47aef557fa07ad
gd1979-11-25.motb.0062.d1t03.flac:2698e82186efbbfc89acd52f619bba76
gd1979-11-25.motb.0062.d1t04.flac:510b78e3c4adcf5b74ca13239bea6f58
gd1979-11-25.motb.0062.d1t05.flac:5f4aab78ee82aca20fcb35291aec8e0c
gd1979-11-25.motb.0062.d1t06.flac:a7febebc802375fc15c54c5cef0e5321
gd1979-11-25.motb.0062.d1t07.flac:1f373278633298995a4da34ba68e6096
gd1979-11-25.motb.0062.d1t08.flac:673a2fae81e2aca38770a8222bac403b
gd1979-11-25.motb.0062.d1t09.flac:553ce6427bb9988027e22a23f855739a
gd1979-11-25.motb.0062.d1t10.flac:529bb20d7826af067e2abb8562218f3b
gd1979-11-25.motb.0062.d1t11.flac:61ce13a2a83af3c3a1590b7b49db36b1
gd1979-11-25.motb.0062.d2t01.flac:c159500ba7283d7da0a35cf0ece524b3
gd1979-11-25.motb.0062.d2t02.flac:2a7bc47122bbaebd0deb0d17de562203
gd1979-11-25.motb.0062.d2t03.flac:8d9b8b0b2287cec7a2aadd885386a09a
gd1979-11-25.motb.0062.d2t04.flac:45b3e53f3b28113bc870ddd8aba0e84b
gd1979-11-25.motb.0062.d2t05.flac:62441de0776af0ffb7cb5cab6d53d457
gd1979-11-25.motb.0062.d2t06.flac:584fae027e8d97577893e4105fd1aec8
gd1979-11-25.motb.0062.d3t01.flac:b33226966d727184ffdceefe0b125754
gd1979-11-25.motb.0062.d3t02.flac:84715be6bc2889e6d700ce0915c7c552
gd1979-11-25.motb.0062.d3t03.flac:ae71e561e23f888814faf806b1f00ba1
gd1979-11-25.motb.0062.d3t04.flac:e54ddabc7cacab4f7df4253af4dfad8c
gd1979-11-25.motb.0062.d3t05.flac:726f28c575977406fcd05fc8e93a8221

Comments
Add Comment
Other Sources (comments)
SBD Cassmaster-> PCM->... (7) Recording Info: SBD ->... (0) flac16; Recording... (0) flac24; Analog... (0) flac16; Recorded by... (0) flac16; Matrix 2... (0) DTS Audio 5.1; SBD... (0)
Date User Comment