Browse Collections Artists Sources   Search Dates

Add Show    List Management    Help


Grateful Dead 11/25/79
Pauley Pavilion, UCLA, Los Angeles, CA
Comments Add Comment    Source Collectors    Add to Collection    Add to Want List    History
Source # 90638 Other Sources
Entered by Matt Vernon
Checksums flac-md5 , ffp
Disc Counts 5 / 0
Media Size
Date Circulated
Date Added
03/07/2008
03/07/2008
Source Summary flac24; Analog Audience Source: Master Cassettes [FOB, 60' from stage] (MAC) Medium Stock Brands: MAC = Maxell UD XL II Analog Lineage: 2 x Nakamichi CM-700 => Sony TC-D5 >> MAC Analog Sound Preservation: MAC >> Nakamichi DR-8 => Korg MR-1000 >> DSF [1-bit 5.6448 MHz Stereo] >> Korg MR-1000 => Korg AudioGate >> WAV [24/96] Taped By: Bob Menke Transfer By: Bob Menke Mastering By: Derek McCabe 
  Archive
Source Information - Download Text | Download Zip
MOTB Release: 0062 24/96
Release Date: 2008-03-07
Band: Grateful Dead
Date: 1979-11-25 (Sunday)
Venue: Pauley Pavilion - University of California
Location: Los Angeles, CA
Analog Audience Source: Master Cassettes [FOB, 60' from stage] (MAC)
Medium Stock Brands: MAC = Maxell UD XL II
Analog Lineage: 2 x Nakamichi CM-700 => Sony TC-D5 >> MAC
Analog Sound Preservation: MAC >> Nakamichi DR-8 => Korg MR-1000 >> DSF [1-bit 5.6448 MHz Stereo] >> Korg MR-1000 => Korg AudioGate >> WAV [24/96]
Taped By: Bob Menke
Transfer By: Bob Menke
Mastering By: Derek McCabe

Set 1
s1t01 - Jack Straw
s1t02 - Tennessee Jed
s1t03 - Me And My Uncle >
s1t04 - Big River
s1t05 - Loser
s1t06 - New Minglewood Blues
s1t07 - Easy To Love You
s1t08 - Althea
s1t09 - Lost Sailor >
s1t10 - Saint Of Circumstance >
s1t11 - Deal

Set 2
s2t01 - Shakedown Street >
s2t02 - Bertha
s2t03 - Looks Like Rain
s2t04 - He's Gone >
s2t05 - The Other One >
s2t06 - Drums >
s2t07 - Space >
s2t08 - Truckin' >
s2t09 - Stella Blue >
s2t10 - Good Lovin'

Encore
sEt01 - Johnny B. Goode

Mastering Notes
-- Crossfaded numerous tape pauses. The tape was paused during most of the song breaks in Set 1, and for a few in Set 2.
-- s2t06 - Tape flip during "Drums" crossfaded.

Notes
-- This is a beautiful recording with wonderful separation of the instruments.

SHNTOOL OUTPUT:
    length     expanded size    cdr  WAVE problems  fmt   ratio  filename
     7:44.798     267723686 B   cxx   --   ---xx   flac  0.6085  gd1979-11-25.motb.0062.s1t01.flac
     8:40.147     299604524 B   cxx   --   ---xx   flac  0.6164  gd1979-11-25.motb.0062.s1t02.flac
     3:07.697     108113348 B   cxx   --   ---xx   flac  0.6202  gd1979-11-25.motb.0062.s1t03.flac
     6:33.267     226521644 B   cxx   --   ---xx   flac  0.6198  gd1979-11-25.motb.0062.s1t04.flac
     7:00.154     242008964 B   cxx   --   ---xx   flac  0.6106  gd1979-11-25.motb.0062.s1t05.flac
     8:10.683     282633230 B   cxx   --   ---xx   flac  0.6193  gd1979-11-25.motb.0062.s1t06.flac
     4:32.192     156782528 B   cxx   --   ---xx   flac  0.6085  gd1979-11-25.motb.0062.s1t07.flac
     8:34.832     296543498 B   cxx   --   ---xx   flac  0.6070  gd1979-11-25.motb.0062.s1t08.flac
     6:17.490     217434302 B   cxx   --   ---xx   flac  0.6133  gd1979-11-25.motb.0062.s1t09.flac
     5:20.697     184721546 B   cxx   --   ---xx   flac  0.6294  gd1979-11-25.motb.0062.s1t10.flac
     5:09.513     178279550 B   cxx   --   ---xx   flac  0.6255  gd1979-11-25.motb.0062.s1t11.flac
    13:19.175     460325042 B   cxx   --   ---xx   flac  0.6321  gd1979-11-25.motb.0062.s2t01.flac
     7:29.530     258929072 B   cxx   --   ---xx   flac  0.6344  gd1979-11-25.motb.0062.s2t02.flac
     8:02.084     277680296 B   cxx   --   ---xx   flac  0.6144  gd1979-11-25.motb.0062.s2t03.flac
    11:12.211     387193688 B   cxx   --   ---xx   flac  0.6068  gd1979-11-25.motb.0062.s2t04.flac
    12:13.524     422510018 B   cxx   --   ---xx   flac  0.6225  gd1979-11-25.motb.0062.s2t05.flac
     9:09.977     316786784 B   cxx   --   ---xx   flac  0.5907  gd1979-11-25.motb.0062.s2t06.flac
     2:59.383     103324664 B   cxx   --   ---xx   flac  0.5665  gd1979-11-25.motb.0062.s2t07.flac
     7:57.900     275270222 B   cxx   --   ---xx   flac  0.6175  gd1979-11-25.motb.0062.s2t08.flac
    10:41.549     369532148 B   cxx   --   ---xx   flac  0.5895  gd1979-11-25.motb.0062.s2t09.flac
     8:37.453     298053164 B   cxx   --   ---xx   flac  0.6200  gd1979-11-25.motb.0062.s2t10.flac
     4:35.775     158846474 B   cxx   --   ---xx   flac  0.6230  gd1979-11-25.motb.0062.sEt01.flac
   167:30.030    5788818392 B                            0.6142  (22 files)

Show Checksums
flac-md5
df9b1ce4b6e536d383c8d115e868c834 *gd1979-11-25.motb.0062.s1t01.flac
93e4865cc5968edf64fed95f4d242008 *gd1979-11-25.motb.0062.s1t02.flac
25746379346528c0761c37cf8ba43a77 *gd1979-11-25.motb.0062.s1t03.flac
d38030fd70d710a1ea2b92e713dae4e1 *gd1979-11-25.motb.0062.s1t04.flac
b5aeac31f0493b94b24443fee3840e2e *gd1979-11-25.motb.0062.s1t05.flac
362cc79468f0702ab531e84871759744 *gd1979-11-25.motb.0062.s1t06.flac
7125fc9e17d8de0b7ff353bb7a42482a *gd1979-11-25.motb.0062.s1t07.flac
1c39a7480e4ce29c535c6dd7804675aa *gd1979-11-25.motb.0062.s1t08.flac
740635e70f98db995e0fb5ecdad6dd7b *gd1979-11-25.motb.0062.s1t09.flac
084928d53f3e3f1f785486a510bf9659 *gd1979-11-25.motb.0062.s1t10.flac
c5a76b740477df60bda4752e9315b957 *gd1979-11-25.motb.0062.s1t11.flac
164efb3da942a743c4dd41f77ff2c0cd *gd1979-11-25.motb.0062.s2t01.flac
a78aee90b6d13848e678949eac0b8e8e *gd1979-11-25.motb.0062.s2t02.flac
498c2fff1bd909e3857c596ccee0ce93 *gd1979-11-25.motb.0062.s2t03.flac
659763e62dbd0219bbbd70ca365f4557 *gd1979-11-25.motb.0062.s2t04.flac
de0c4099f98b6622fabeb654f6b4cfdd *gd1979-11-25.motb.0062.s2t05.flac
ed84f805bdb238a7a8bed034525df6d3 *gd1979-11-25.motb.0062.s2t06.flac
3227a9e1703c2e3b97e44e6c9cbd6f57 *gd1979-11-25.motb.0062.s2t07.flac
988c2253d9b0dcd0bc6d520d21131646 *gd1979-11-25.motb.0062.s2t08.flac
da77c804e6db4936f0ffb7cee1ffd2b1 *gd1979-11-25.motb.0062.s2t09.flac
5fe5dfb7f88ba16b63078fa878c47e52 *gd1979-11-25.motb.0062.s2t10.flac
a3b33bfd26c87ce9256436b2d9976a3f *gd1979-11-25.motb.0062.sEt01.flac
ffp
gd1979-11-25.motb.0062.s1t01.flac:1618633b0cf706755376a6192d6b009c
gd1979-11-25.motb.0062.s1t02.flac:8ebb46cef7b597adfb1e13137758e0e2
gd1979-11-25.motb.0062.s1t03.flac:f1df4eae71cbf281b96a531b768f3815
gd1979-11-25.motb.0062.s1t04.flac:b1e4e3a1981130ddde21c92d5070bf9f
gd1979-11-25.motb.0062.s1t05.flac:28ecaa17b7d9aeb480a34df5f9d00493
gd1979-11-25.motb.0062.s1t06.flac:d4cda1ffbfc0f16037df205ebaddb589
gd1979-11-25.motb.0062.s1t07.flac:7e1bdd255b53f87292083ad6235c2608
gd1979-11-25.motb.0062.s1t08.flac:08d39bf2e33b92fc648c4d6d76e32780
gd1979-11-25.motb.0062.s1t09.flac:76b8956a2aa023f4f5b997ef35292456
gd1979-11-25.motb.0062.s1t10.flac:56c32a683eb54e82614ed1b13782fdbd
gd1979-11-25.motb.0062.s1t11.flac:758830183735f3c2975ea4a3e1cf7715
gd1979-11-25.motb.0062.s2t01.flac:c8b392948cf908ed21a3f61deffb984b
gd1979-11-25.motb.0062.s2t02.flac:1b0695d89eba98e3daee42d16c453902
gd1979-11-25.motb.0062.s2t03.flac:b14e04a73cf4575dda8c8164cb07fa43
gd1979-11-25.motb.0062.s2t04.flac:ac43e057e0a45c2ccbf08dd27548e035
gd1979-11-25.motb.0062.s2t05.flac:e9c3144201fe868055dfeb44dea53cfb
gd1979-11-25.motb.0062.s2t06.flac:86fbd2151e4b220054d2035ba86016a3
gd1979-11-25.motb.0062.s2t07.flac:d1e62ff88c684560997cc82d76bebb31
gd1979-11-25.motb.0062.s2t08.flac:e8d8fcc9e310a65fa8d6428621263b69
gd1979-11-25.motb.0062.s2t09.flac:4c478e15821d36767705c20d1a5f0625
gd1979-11-25.motb.0062.s2t10.flac:2c631d44083101ec22ba7904cd4b51f0
gd1979-11-25.motb.0062.sEt01.flac:dcd8394a25a5cb01665963d1bc412022

Comments
Add Comment
Other Sources (comments)
SBD Cassmaster-> PCM->... (7) Recording Info: SBD ->... (0) flac16; Recording... (0) flac16; Analog... (0) flac16; Recorded by... (0) flac16; Matrix 2... (0) DTS Audio 5.1; SBD... (0)
Date User Comment